(Classical) Шопен – Фортепианные концерты в камерной редакции / Chopin – The Piano Concertos, Chamber Version (Fumiko Shiraga,Jan-Inge Haukas;The Yggdrasil Quartet:Henrik Peterson,Per Oman,Robert Westlund,Per Nystrom)- 1997,FLAC (image+.cue) lossless


 

[Цитировать]

Шопен – Фортепианные концерты в редакции со струнным квинтетом / Chopin – The Two Piano Concertos in Chamber Version (Fumiko Shiraga, Jan-Inge Haukås; The Yggdrasil Quartet: Henrik Peterson, Per Öman, Robert Westlund, Per Nyström)
Жанр: Classical
Страна-производитель диска: Австрия
Год издания диска: 1997
Издатель (лейбл): BIS
Номер по каталогу: BIS-CD-847
Дата записи: 6 и 7 декабря 1996 г., Бохум.
Аудиокодек: FLAC
Тип рипа: image+.cue
Битрейт аудио: lossless
Продолжительность: 01:12:14
Источник: odeonmusic
Наличие сканов в содержимом раздачи: да
Треклист:
Фредерик Франсуа Шопен (1810 — 1849).
Фортепианный концерт № 1 e-moll, op. 11 (1830), версия со струнным квинтетом.
01. I. Allegro maestoso [19:05].
02. II. Romance. Larghetto [09:47].
03. III. Rondo. Vivace [09:50].
Фортепианный концерт № 2 f-moll, op. 21 (1829 — 1830), версия со струнным квинтетом.
04. I. Maestoso [14:08].
05. II. Larghetto [08:59].
06. III. Allegro vivace [08:47].
Исполнители:
Fumiko Shiraga (фортепиано).
Jan-Inge Haukås (контрабас).
The Yggdrasil Quartet:
Henrik Peterson (I скрипка),
Per Öman (II скрипка),
Robert Westlund (альт),
Per Nyström (виолончель).

Лог создания рипа

Exact Audio Copy V1.0 beta 3 from 29. August 2011
EAC extraction logfile from 6. March 2014, 10:34
Fumiko Shiraga / Chopin - Piano Concertos (Chamber Version) - Fumiko Shiraga
Used drive : TSSTcorpCDDVDW SH-222BB Adapter: 2 ID: 1
Read mode : Secure
Utilize accurate stream : Yes
Defeat audio cache : Yes
Make use of C2 pointers : No
Read offset correction : 6
Overread into Lead-In and Lead-Out : No
Fill up missing offset samples with silence : Yes
Delete leading and trailing silent blocks : No
Null samples used in CRC calculations : Yes
Used interface : Native Win32 interface for Win NT & 2000
Used output format : User Defined Encoder
Selected bitrate : 896 kBit/s
Quality : High
Add ID3 tag : No
Command line compressor : C:\Program Files\Exact Audio Copy\FLAC\FLAC.EXE
Additional command line options : -8 -V -T "TITLE=%title%" -T "ARTIST=%artist%" -T "ALBUMARTIST=%albumartist%" -T "ALBUM=%albumtitle%" -T "DATE=%year%" -T "TRACKNUMBER=%tracknr%" -T "TRACKTOTAL=%numtracks%" -T "GENRE=%genre%" -T "COMMENT=%comment%" -T "PERFORMER=%albuminterpret%" -T "COMPOSER=%composer%" %source% -o %dest%
TOC of the extracted CD
Track | Start | Length | Start sector | End sector
---------------------------------------------------------
1 | 0:00.00 | 19:20.10 | 0 | 87009
2 | 19:20.10 | 9:50.35 | 87010 | 131294
3 | 29:10.45 | 10:11.40 | 131295 | 177159
4 | 39:22.10 | 14:19.67 | 177160 | 241651
5 | 53:42.02 | 9:05.60 | 241652 | 282586
6 | 62:47.62 | 9:26.43 | 282587 | 325079
Range status and errors
Selected range
Filename E:\3000\[3280] Chopin – Piano Concertos (Chamber Version) – Fumiko Shiraga\Chopin - Piano Concertos (Chamber Version) - Fumiko Shiraga.wav
Peak level 98.0 %
Extraction speed 7.4 X
Range quality 100.0 %
Test CRC 9769D3C5
Copy CRC 9769D3C5
Copy OK
No errors occurred
AccurateRip summary
Track 1 accurately ripped (confidence 6) [D8AD8D67] (AR v2)
Track 2 accurately ripped (confidence 6) [033957B6] (AR v2)
Track 3 accurately ripped (confidence 6) [6708FC02] (AR v2)
Track 4 accurately ripped (confidence 6) [64B8B55C] (AR v2)
Track 5 accurately ripped (confidence 6) [9C81B954] (AR v2)
Track 6 accurately ripped (confidence 6) [00FD4473] (AR v2)
All tracks accurately ripped
End of status report
==== Log checksum 39F376006ED7CADA2566A7EAEB584D9CF93241ABF8D6691211260B1859098B5D ====

Содержание индексной карты (.CUE)

REM GENRE Classical
REM DATE 1997
REM DISCID 4E10EE06
REM COMMENT "ExactAudioCopy v1.0b3"
CATALOG 0000000000000
PERFORMER "Fumiko Shiraga & The Yggdrasil Quartet"
TITLE "Chopin – Piano Concertos (Chamber Version) – Fumiko Shiraga"
FILE "Chopin – Piano Concertos (Chamber Version) – Fumiko Shiraga.flac" WAVE
TRACK 01 AUDIO
TITLE "Piano Concerto No. 1 in E minor, Op. 11 - I. Allegro maestoso"
PERFORMER "Fumiko Shiraga & The Yggdrasil Quartet"
ISRC SEAEI9647010
INDEX 01 00:00:00
TRACK 02 AUDIO
TITLE "Piano Concerto No. 1 in E minor, Op. 11 - II. Romance. Larghetto"
PERFORMER "Fumiko Shiraga & The Yggdrasil Quartet"
ISRC SEAEI9647010
INDEX 01 19:20:10
TRACK 03 AUDIO
TITLE "Piano Concerto No. 1 in E minor, Op. 11 - III. Rondo. Vivace"
PERFORMER "Fumiko Shiraga & The Yggdrasil Quartet"
ISRC SEAEI9647030
INDEX 01 29:10:45
TRACK 04 AUDIO
TITLE "Piano Concerto No. 2 in F minor, Op. 21 - I. Maestoso"
PERFORMER "Fumiko Shiraga & The Yggdrasil Quartet"
ISRC SEAEI9647040
INDEX 01 39:22:10
TRACK 05 AUDIO
TITLE "Piano Concerto No. 2 in F minor, Op. 21 - II. Larghetto"
PERFORMER "Fumiko Shiraga & The Yggdrasil Quartet"
ISRC SEAEI9647040
INDEX 01 53:42:02
TRACK 06 AUDIO
TITLE "Piano Concerto No. 2 in F minor, Op. 21 - III. Allegro vivace"
PERFORMER "Fumiko Shiraga & The Yggdrasil Quartet"
ISRC SEAEI9647060
INDEX 01 62:47:62

Вариант индексной карты (.CUE) с выставленными зазорами

REM GENRE Classical
REM DATE 1997
REM DISCID 4E10EE06
REM COMMENT "ExactAudioCopy v1.0b3"
CATALOG 0000000000000
PERFORMER "Fumiko Shiraga & The Yggdrasil Quartet"
TITLE "Chopin – Piano Concertos (Chamber Version) – Fumiko Shiraga"
FILE "Chopin – Piano Concertos (Chamber Version) – Fumiko Shiraga.flac" WAVE
TRACK 01 AUDIO
TITLE "Piano Concerto No. 1 in E minor, Op. 11 - I. Allegro maestoso"
PERFORMER "Fumiko Shiraga & The Yggdrasil Quartet"
ISRC SEAEI9647010
INDEX 00 00:00:00
INDEX 01 00:03:47
TRACK 02 AUDIO
TITLE "Piano Concerto No. 1 in E minor, Op. 11 - II. Romance. Larghetto"
PERFORMER "Fumiko Shiraga & The Yggdrasil Quartet"
ISRC SEAEI9647010
INDEX 00 19:11:50
INDEX 01 19:21:41
TRACK 03 AUDIO
TITLE "Piano Concerto No. 1 in E minor, Op. 11 - III. Rondo. Vivace"
PERFORMER "Fumiko Shiraga & The Yggdrasil Quartet"
ISRC SEAEI9647030
INDEX 01 29:10:45
TRACK 04 AUDIO
TITLE "Piano Concerto No. 2 in F minor, Op. 21 - I. Maestoso"
PERFORMER "Fumiko Shiraga & The Yggdrasil Quartet"
ISRC SEAEI9647040
INDEX 00 39:03:66
INDEX 01 39:23:48
TRACK 05 AUDIO
TITLE "Piano Concerto No. 2 in F minor, Op. 21 - II. Larghetto"
PERFORMER "Fumiko Shiraga & The Yggdrasil Quartet"
ISRC SEAEI9647040
INDEX 00 53:34:23
INDEX 01 53:43:41
TRACK 06 AUDIO
TITLE "Piano Concerto No. 2 in F minor, Op. 21 - III. Allegro vivace"
PERFORMER "Fumiko Shiraga & The Yggdrasil Quartet"
ISRC SEAEI9647060
INDEX 00 62:46:18
INDEX 01 62:49:21
INDEX 02 71:39:15
-Фредерик Франсуа Шопен.
Фортепианный концерт № 1 в редакции для фортепиано со струнным квинтетом (Jean-Marc Luisada, Quatuor Talich, Benjamin Berlioz).
Фортепианные концерты № 1 и 2 в редакции для фортепиано со струнным квартетом (Наум Штаркман, Государственный Квартет им. М.И. Глинки ).



Показать сообщения:    

Текущее время: 05-Дек 05:30

Часовой пояс: UTC + 3


Вы не можете начинать темы
Вы не можете отвечать на сообщения
Вы не можете редактировать свои сообщения
Вы не можете удалять свои сообщения
Вы не можете голосовать в опросах
Вы не можете прикреплять файлы к сообщениям
Вы не можете скачивать файлы