Кинематограф мести / Герои кинематографа / Cinema of Vengeance (Тоби Расселл/Toby Russell) [1994, документальный,боевые искусства, DVDRip]


Статистика раздачи [Обновить пиров]
Размер:  2 GB   |    Зарегистрирован:  8 месяцев 19 дней   |    Скачан:  0 раз

Полного источника не было: Никогда

Личеров:  6  [  0 KB/s  ]   Подробная статистика пиров
 
   
 
 
 

[Цитировать]

Кинематограф мести / Герои кинематографа / Cinema of Vengeance
Дата/Год выпуска: 1994
Страна: Гонконг
Жанр: документальный,боевые искусства
Продолжительность: 01:29:20
Перевод: Одноголосый закадровый
Русские субтитры: нет
Cэмпл: http://multi-up.com/996999
Оригинальная аудиодорожка: английский
Режиссер: Тоби Расселл/Toby Russell
Описание: В Гонконгском кинемотографе сюжеты построены на мести один герой мстит другой защищается вот уже около 40 лет по всему миру смотрят фильмы снятые в этой стране многие режиссеры давно работают в Голливуде в этом фильме расказывается о наиболее известных в этом жанре актерах режиссерах начиная от первых ч.б фильмов и заканчивая такими как Трудная Мишень с Жан Клодом Вандаммом
Доп. информация: В этом фильме очень подробно описана история возникновения фильмов основанных на боевых искусствах кунг-фу многие интервью данные для данного фильма в последствии можно увидеть в дополнениях к всем хорошо известных релизах HKL DVD в общем достаточно познавательный фильм советую скачать. Рип скачан из сети, дорожка подогна при помощи cubase 7,добавлена при помощи avi mux.
качество: DVDRip
формат: AVI
Видео: 720x544 (1.32:1), 25 fps, XviD MPEG-4 ~2807 kbps avg, 0.29 bit/pixel
Аудио: 48 kHz, AC3 Dolby Digital, 2 ch, ~192.00 kbps avg, Русский
Аудио 2: 48 kHz, AC3 Dolby Digital, 2 ch, ~192.00 kbps avg, Оригинал

MediaInfo

General
Complete name : H:\555\Cinema of Vengeance.avi
Format : AVI
Format/Info : Audio Video Interleave
Format profile : OpenDML
Format settings : rec
File size : 2.00 GiB
Duration : 1h 29mn
Overall bit rate : 3 199 Kbps
Writing application : AVI-Mux GUI 1.17.8.3, Feb 16 201019:42:50
Video
ID : 0
Format : MPEG-4 Visual
Format profile : Advanced Simple@L5
Format settings, BVOP : Yes
Format settings, QPel : No
Format settings, GMC : No warppoints
Format settings, Matrix : Custom
Codec ID : XVID
Codec ID/Hint : XviD
Duration : 1h 29mn
Bit rate : 2 807 Kbps
Width : 720 pixels
Height : 544 pixels
Display aspect ratio : 4:3
Frame rate : 25.000 fps
Color space : YUV
Chroma subsampling : 4:2:0
Bit depth : 8 bits
Scan type : Progressive
Compression mode : Lossy
Bits/(Pixel*Frame) : 0.287
Stream size : 1.75 GiB (88%)
Writing library : XviD 1.2.1 (UTC 2008-12-04)
Audio #1
ID : 1
Format : AC-3
Format/Info : Audio Coding 3
Mode extension : CM (complete main)
Format settings, Endianness : Big
Codec ID : 2000
Duration : 1h 29mn
Bit rate mode : Constant
Bit rate : 192 Kbps
Channel(s) : 2 channels
Channel positions : Front: L R
Sampling rate : 48.0 KHz
Bit depth : 16 bits
Compression mode : Lossy
Stream size : 123 MiB (6%)
Alignment : Aligned on interleaves
Interleave, duration : 64 ms (1.60 video frames)
Interleave, preload duration : 192 ms
Audio #2
ID : 2
Format : AC-3
Format/Info : Audio Coding 3
Mode extension : CM (complete main)
Format settings, Endianness : Big
Codec ID : 2000
Duration : 1h 29mn
Bit rate mode : Constant
Bit rate : 192 Kbps
Channel(s) : 2 channels
Channel positions : Front: L R
Sampling rate : 48.0 KHz
Bit depth : 16 bits
Compression mode : Lossy
Stream size : 123 MiB (6%)
Alignment : Aligned on interleaves
Interleave, duration : 64 ms (1.60 video frames)
Interleave, preload duration : 192 ms

Скриншоты

[teatrix.ru].t19058.torrent 
Торрент: Зарегистрирован [ 2016-03-18 12:47 ] · 4BBEEDBC5D71D0D9591E67B3D3EBBDCEC8143C16

Скачать .torrent

Скачать

21 KB

Статус: проверено
Скачан: 0 раз
Размер: 2 GB
terms.php



Показать сообщения:    

Текущее время: 06-Дек 15:09

Часовой пояс: UTC + 3


Вы не можете начинать темы
Вы не можете отвечать на сообщения
Вы не можете редактировать свои сообщения
Вы не можете удалять свои сообщения
Вы не можете голосовать в опросах
Вы не можете прикреплять файлы к сообщениям
Вы можете скачивать файлы