(Classical) Telemann - Sonate a-moll; Weiss - Sarabande a-moll; Abel - Sonate G-dur; Gaultier - Allemande; Forqueray - Pieces de Viole avec la Basse Continue (Гринденко, Суетин) - 2011, WavPack (iso.wv) lossless


 

[Цитировать]

Telemann- Sonate a-moll; Weiss - Sarabande a-moll; Abel - Sonate G-dur; Gaultier - Allemande; Forqueray - Pieces de Viole avec la Basse Continue (Гринденко, Суетин) Жанр: Classical
Страна-производитель диска: Россия
Год издания диска: 2011
Издатель (лейбл): Артсервис
Номер по каталогу: ART-119
Дата записи: 2011
Аудиокодек: WavPack
Тип рипа: iso.wv
Битрейт аудио: lossless
Продолжительность: 0:42:51
Источник: NetLab, shatterhand
Наличие сканов в содержимом раздачи: да
Треклист:
Georg Philipp Telemann (1681-1767)
Sonate a-moll fur Viola da Gamba und Basso continuo
01. I. Largo (2:13)
02. II. Allegro (2:15)
03. III. Soave (2:25)
04. IV. Allegro (3:06)
Silvius Leopold (1687-1750)
05. Sarabande a-moll (Moscow Manuscript) (4:11)
Carl Friedrich Abel (1723-1787)
Sonate G-dur fur Viola da Gamba solo
06. I. Adagio (1:57)
07. II. Allegro (1:51)
08. III. Menuet (2:52)
Ennemond Gaultier (1575-1651)
09. Allemande (2:08)
Antoine Forqueray (1672-1745)
Pieces de Viole avec la Basse Continue
10. I. La Leon. Sarabande (3:02)
11. II. La Montigni (5:13)
12. III. La Silva (3:42)
13. IV. Le Carillion de Passy (7:53)
Исполнители:
Анатолий Гринденко - виола да гамба (1-4,6-8,10-13)
Александр Суетин - орфарион (1-4), барочная лютня (5,9), теорба (10-13)

Перечень файлов (содержимое) контейнера в текстовом виде.

1. Содержимое CUE-файла.
2. Отчёт ЕАС.
3. Аудиофайл (.wv)
4. Сканы: буклет, диск, (полные) JPG;
5. тех. данные
6. Сканы front, CD, Back формат jpeg

Лог создания рипа

Exact Audio Copy V1.0 beta 3 from 29. August 2011
EAC extraction logfile from 5. April 2014, 10:49
Анатолий Гринденко, Александр Суетин / Виола да гамба, барочная лютня
Used drive : TSSTcorpCDDVDW SH-S223F Adapter: 0 ID: 1
Read mode : Secure
Utilize accurate stream : Yes
Defeat audio cache : Yes
Make use of C2 pointers : No
Read offset correction : 6
Overread into Lead-In and Lead-Out : No
Fill up missing offset samples with silence : Yes
Delete leading and trailing silent blocks : No
Null samples used in CRC calculations : Yes
Used interface : Native Win32 interface for Win NT & 2000
Used output format : User Defined Encoder
Selected bitrate : 1024 kBit/s
Quality : High
Add ID3 tag : No
Command line compressor : C:\Program Files\Exact Audio Copy\wavpack.exe
Additional command line options : -hm %source% %dest%
TOC of the extracted CD
Track | Start | Length | Start sector | End sector
---------------------------------------------------------
1 | 0:00.00 | 2:12.38 | 0 | 9937
2 | 2:12.38 | 2:15.20 | 9938 | 20082
3 | 4:27.58 | 2:25.16 | 20083 | 30973
4 | 6:52.74 | 3:06.18 | 30974 | 44941
5 | 9:59.17 | 4:11.25 | 44942 | 63791
6 | 14:10.42 | 1:56.68 | 63792 | 72559
7 | 16:07.35 | 1:51.14 | 72560 | 80898
8 | 17:58.49 | 2:51.45 | 80899 | 93768
9 | 20:50.19 | 2:08.29 | 93769 | 103397
10 | 22:58.48 | 3:02.10 | 103398 | 117057
11 | 26:00.58 | 5:12.45 | 117058 | 140502
12 | 31:13.28 | 3:42.24 | 140503 | 157176
13 | 34:55.52 | 7:53.35 | 157177 | 192686
Range status and errors
Selected range
Filename D:\iso\Анатолий Гринденко, Александр Суетин - Виола да гамба, барочная лютня\Анатолий Гринденко, Александр Суетин - Виола да гамба, барочная лютня.wav
Peak level 97.7 %
Extraction speed 1.5 X
Range quality 100.0 %
Test CRC 4EC19AB7
Copy CRC 4EC19AB7
Copy OK
No errors occurred
AccurateRip summary
Track 1 not present in database
Track 2 not present in database
Track 3 not present in database
Track 4 not present in database
Track 5 not present in database
Track 6 not present in database
Track 7 not present in database
Track 8 not present in database
Track 9 not present in database
Track 10 not present in database
Track 11 not present in database
Track 12 not present in database
Track 13 not present in database
None of the tracks are present in the AccurateRip database
End of status report
==== Log checksum 2EDEABE47691E4791E4182F4EE41E278B57B27E8FC4F020AD2C70AE8A3A4C99F ====

Содержание индексной карты (.CUE)

REM GENRE "Classical"
REM DATE 2007
REM DISCID A60A090D
REM COMMENT "ExactAudioCopy v1.0b3"
PERFORMER "Анатолий Гринденко, Александр Суетин"
TITLE "Виола да гамба, барочная лютня"
FILE "Anatolij Grindenko, Aleksandr Suetin - 2007 - Viola da gamba, barochnaya lyutnya (Artservis ART-119) [NL+].wv" WAVE
TRACK 01 AUDIO
TITLE "Georg Philipp Telemann (1681-1767). Sonate a-moll fur Viola da Gamba und Basso continuo, I. Largo"
PERFORMER "Анатолий Гринденко, Александр Суетин"
INDEX 01 00:00:00
TRACK 02 AUDIO
TITLE "Georg Philipp Telemann (1681-1767). Sonate a-moll fur Viola da Gamba und Basso continuo, II. Allegro"
PERFORMER "Анатолий Гринденко, Александр Суетин"
INDEX 01 02:12:38
TRACK 03 AUDIO
TITLE "Georg Philipp Telemann (1681-1767). Sonate a-moll fur Viola da Gamba und Basso continuo, III. Soave"
PERFORMER "Анатолий Гринденко, Александр Суетин"
INDEX 01 04:27:58
TRACK 04 AUDIO
TITLE "Georg Philipp Telemann (1681-1767). Sonate a-moll fur Viola da Gamba und Basso continuo, IV. Allegro"
PERFORMER "Анатолий Гринденко, Александр Суетин"
INDEX 01 06:52:74
TRACK 05 AUDIO
TITLE "Silvius Leopold Weiss (1687-1750). Sarabande a-moll (Moscow Manuscript)"
PERFORMER "Анатолий Гринденко, Александр Суетин"
INDEX 01 09:59:17
TRACK 06 AUDIO
TITLE "Carl Friedrich Abel (1723-1787). Sonate G-dur fur Viola da Gamba solo, I. Adagio"
PERFORMER "Анатолий Гринденко, Александр Суетин"
INDEX 01 14:10:42
TRACK 07 AUDIO
TITLE "Carl Friedrich Abel (1723-1787). Sonate G-dur fur Viola da Gamba solo, II. Allegro"
PERFORMER "Анатолий Гринденко, Александр Суетин"
INDEX 01 16:07:35
TRACK 08 AUDIO
TITLE "Carl Friedrich Abel (1723-1787). Sonate G-dur fur Viola da Gamba solo, III. Menuet"
PERFORMER "Анатолий Гринденко, Александр Суетин"
INDEX 01 17:58:49
TRACK 09 AUDIO
TITLE "Ennemond Gaultier (1575-1651). Allemande"
PERFORMER "Анатолий Гринденко, Александр Суетин"
INDEX 01 20:50:19
TRACK 10 AUDIO
TITLE "Antoine Forqueray (1672-1745). Pieces de Viole avec la Basse Continue, I. La Leon. Sarabande"
PERFORMER "Анатолий Гринденко, Александр Суетин"
INDEX 01 22:58:48
TRACK 11 AUDIO
TITLE "Antoine Forqueray (1672-1745). Pieces de Viole avec la Basse Continue, II. La Montigni"
PERFORMER "Анатолий Гринденко, Александр Суетин"
INDEX 01 26:00:58
TRACK 12 AUDIO
TITLE "Antoine Forqueray (1672-1745). Pieces de Viole avec la Basse Continue, III. La Silva"
PERFORMER "Анатолий Гринденко, Александр Суетин"
INDEX 01 31:13:28
TRACK 13 AUDIO
TITLE "Antoine Forqueray (1672-1745). Pieces de Viole avec la Basse Continue, IV. Le Carillion de Passy"
PERFORMER "Анатолий Гринденко, Александр Суетин"
INDEX 01 34:55:52

Лог проверки качества


 

Скриншот спектра частот




Показать сообщения:    

Текущее время: 03-Дек 18:41

Часовой пояс: UTC + 3


Вы не можете начинать темы
Вы не можете отвечать на сообщения
Вы не можете редактировать свои сообщения
Вы не можете удалять свои сообщения
Вы не можете голосовать в опросах
Вы не можете прикреплять файлы к сообщениям
Вы не можете скачивать файлы