Созвездие Ники - 5-я церемония вручения наград за 1991 год (Алла Супроненко) [1993, кинематограф, DVB]


Статистика раздачи [Обновить пиров]
Размер:  1.66 GB   |    Зарегистрирован:  8 месяцев 16 дней   |    Скачан:  0 раз

Полного источника не было: Никогда

Личеров:  3  [  0 KB/s  ]   Подробная статистика пиров
 
   
 
 
 

[Цитировать]

Созвездие "Ники"
5-я церемония вручения наград за 1991 год- Дата/Год выпуска: 1993
Страна: Россия
Жанр: кинематограф
Продолжительность: 01:10:06
Перевод: Не требуется
Русские субтитры: нет
Режиссер: Алла Супроненко
Телеканал: НостальгияВ ролях: Юлий Гусман, Татьяна Догилева, Георгий Жжёнов, Светлана Крючкова, Изабель Юппер, Евгений Матвеев, Олег Янковский, Лия Ахеджакова, Аркадий Арканов, Андрей Максимков, Андрей Ургант, Аркадий Коваль, Роберт Городецкий, Александр Ширвиндт, Михаил Державин, Александр Абдулов, Лайма Вайкуле, Михаил Жванецкий, Эльдар Рязанов, Виктор Мережко, Борис Моисеев
Описание: 5-я церемония вручения наград национальной кинематографической премии "Ника" за заслуги в области российского кинематографа за 1991 год состоялась в 1992 году в Центральном Доме кинематографистов.
Треклист:
01. Трио "Экспрессия" под руководством Бориса Моисеева – танцевальная композиция на песню Tanita Tikaram - Twist In My Sobriety
02. Аркадий Арканов – юмореска "Пособие для начинающего революционера"
03. Андрей Максимков, Андрей Ургант, Аркадий Коваль – сатирическая интермедия "Вялые итоги"
04. Роберт Городецкий, Александр Ширвиндт, Михаил Державин – пародия "Blue Canary"
05. Лайма Вайкуле – Gift to Me
06. Михаил Жванецкий – скетч "Доктор и больной"
07. "Капустфильм" показывает сатирический киноролик "Порнография, или С новым годом!"
Отрывки из фильмов-лауреатов "Ребро Адама", "Цареубийца", "Небеса обетованные", "Паспорт".
Доп. информация: DVB-S

качество: DVB
формат: MKV
Видео: MPEG Video 2, 720x576@768x576 (4:3), 25 fps, ~3139 kbps avg, 0.303 bit/pixel
Аудио: MPEG Audio 2, 2 ch, 48 kHz, ~192.00 kbps avg

MediaInfo

Общее
Уникальный идентификатор : 201533556421515948603904539405814613181 (0x979DF37C0473B9F8A583BA0D2CF844BD)
Полное имя : E:\My Torrents 2\[apreder]Sozvezdie_Niki(1993)DVB.mkv
Формат : Matroska
Версия формата : Version 2
Размер файла : 1,66 Гбайт
Продолжительность : 1 ч. 10 м.
Режим общего битрейта : Переменный
Общий поток : 3398 Кбит/сек
Дата кодирования : UTC 2014-09-05 17:05:32
Программа кодирования : mkvmerge v7.1.0 ('Good Love') 64bit built on Jul 27 2014 13:06:55
Библиотека кодирования : libebml v1.3.0 + libmatroska v1.4.1
Видео
Идентификатор : 1
Формат : MPEG Video
Версия формата : Version 2
Профиль формата : Main@Main
Параметр BVOP формата : Нет
Параметр матрицы формата : Выборочная
Идентификатор кодека : V_MPEG2
Идентификатор кодека/Информация : MPEG 1 or 2 Video
Продолжительность : 1 ч. 10 м.
Вид битрейта : Переменный
Битрейт : 3139 Кбит/сек
Максимальный битрейт : 5547 Кбит/сек
Ширина : 720 пикселей
Высота : 576 пикселей
Соотношение сторон : 4:3
Режим частоты кадров : Постоянный
Частота кадров : 25,000 кадров/сек
Стандарт вещания : PAL
Цветовое пространство : YUV
Субдискретизация насыщенности : 4:2:0
Битовая глубина : 8 бит
Тип развёртки : Чересстрочная
Порядок развёртки : Верхнее поле первое
Метод сжатия : С потерями
Бит/(Пиксели*Кадры) : 0.303
Временной код первого кадра : 00:00:00:00
Оригинал временного кода : Group of pictures header
Размер потока : 1,54 Гбайт (92%)
Default : Да
Forced : Нет
Аудио
Идентификатор : 2
Формат : MPEG Audio
Версия формата : Version 1
Профиль формата : Layer 2
Идентификатор кодека : A_MPEG/L2
Идентификатор кодека/Подсказка : MP2
Продолжительность : 1 ч. 10 м.
Вид битрейта : Постоянный
Битрейт : 192 Кбит/сек
Каналы : 2 канала
Частота : 48,0 КГц
Метод сжатия : С потерями
Размер потока : 96,3 Мбайт (6%)
Язык : Russian
Default : Да
Forced : Нет

Скриншоты


Резервные скриншоты


-[1'696]
[teatrix.ru].t19060.torrent 
Торрент: Зарегистрирован [ 2016-03-18 12:47 ] · 6E87565CA6F96ECD48BF57208C34EAA40111C629

Скачать .torrent

Скачать

17 KB

Статус: проверено
Скачан: 0 раз
Размер: 1.66 GB
terms.php



Показать сообщения:    

Текущее время: 03-Дек 20:41

Часовой пояс: UTC + 3


Вы не можете начинать темы
Вы не можете отвечать на сообщения
Вы не можете редактировать свои сообщения
Вы не можете удалять свои сообщения
Вы не можете голосовать в опросах
Вы не можете прикреплять файлы к сообщениям
Вы можете скачивать файлы