Gaetano Donizetti - La Fille du Regiment / Доницетти - Дочь полка (Marco Armiliato, Natalie Dessay, Juan Diego Florez, Metropolitan Opera) [26.04.2008, Opera, Sat stream 1080i]


 

[Цитировать]

Gaetano Donizetti - La Fille du Régiment / Доницетти - Дочь полка
(Metropolitan Opera, 26 апреля 2008, Natalie Dessay, Juan Diego Flórez)

Год выпуска: 26.04.2008
Страна-производитель: Франция
Жанр: Opera-comique
Продолжительность: 02:19:36
Язык: французский
Субтитры: French hardsubs
Режиссер/Хореограф: дирижер Marco Armiliato
Исполнители: Natalie Dessay (Marie)
Juan Diego Flórez (Tonio)
Felicity Palmer (Marquise de Berkenfield)
Alessandro Corbelli (Sergent Sulpice)
Donald Maxwell (Hortentius)
Marian Seldes (Duchesse of Krakentorp)
David Frye (paysan)
Roger Andrews (Caporal)
Jack Wetherall (Notaire)
The Metropolitan Opera Orchestra & Chorus
Laurent Pelly (mise en scène)
Chantal Thomas (décors)
Laurent Pelly (costumes)
Joël Adam (lumières)
Gary Halvorson (réalisation)
Треклист: Комическая опера в двух актах. Запись постановки в Metropolitan Opera (New-York-City) 26 апреля 2008 г. Программу представляет Рене Флеминг.
Описание: "Дочь полка" Доницетти - это опера "для тенора": партия Тонио считается одной из самых сложных партий тенорового репертуара. Немыслимые колоратуры, сложнейшие переходы от одного регистра к другому и, как апофеоз, девять верхних "до" в одной арии - на это отважится далеко не каждый, даже самый выдающийся певец.
Одним из последних великих Тонио был Лучано Паваротти. Сорок лет назад специально для него "Дочь полка" была поставлена на сцене лондонского Ковент Гарден. После Паваротти место смельчака долгое время оставалось вакантным. И вот несколько лет назад его занял блистательный перуанский тенор Хуан Диего Флорес.
С момента возобновления в Ковент Гардене в 2007 году опера с участием Натали Дессей и Флореса ставилась на разных сценах мира (состав исполнителей неглавных партий иногда несколько менялся, в роли "злобной старушки" - предполагаемой свекрови - однажды отметилась даже Монтсеррат Кабалье). И везде - непрекращающийся потрясающий успех у публики и даже у критиков. Вот, например, что пишет Le Figaro (не забывая, конечно, упомянуть "нечистую французскую речь", т.е. акцент перуанца и называя партию Мари лучшей в карьере Дессей) http://www.lefigaro.fr/musique/2012/10/17/03006-20121017ARTFIG00272--la-fille-du-...-la-victoire.php

MediaInfo

General
ID : 1 (0x1)
Format : MPEG-TS
File size : 10.0 GiB
Duration : 2h 19mn
Overall bit rate mode : Variable
Overall bit rate : 10.3 Mbps
Video
ID : 1604 (0x644)
Menu ID : 1 (0x1)
Format : AVC
Format/Info : Advanced Video Codec
Format profile : High@L4.0
Format settings, CABAC : Yes
Format settings, ReFrames : 3 frames
Codec ID : 27
Duration : 2h 19mn
Bit rate : 9 562 Kbps
Width : 1 920 pixels
Height : 1 080 pixels
Display aspect ratio : 16:9
Frame rate : 25.000 fps
Standard : Component
Color space : YUV
Chroma subsampling : 4:2:0
Bit depth : 8 bits
Scan type : Interlaced
Scan order : Top Field First
Bits/(Pixel*Frame) : 0.184
Stream size : 9.32 GiB (93%)
Color primaries : BT.709
Transfer characteristics : BT.709
Matrix coefficients : BT.709
Audio
ID : 2604 (0xA2C)
Menu ID : 1 (0x1)
Format : MPEG Audio
Format version : Version 1
Format profile : Layer 2
Codec ID : 3
Duration : 2h 19mn
Bit rate mode : Constant
Bit rate : 192 Kbps
Channel(s) : 2 channels
Sampling rate : 48.0 KHz
Compression mode : Lossy
Stream size : 192 MiB (2%)
Качество видео: Sat stream
Формат/Контейнер: TS
Видео кодек: H.264
Аудио кодек: MP2
Видео поток: 1920x1080i, 9562 Kbps, 25 fps
Аудио поток: MP2, 192 kbps, 48 kHz, 2.0



Показать сообщения:    

Текущее время: 06-Дек 18:57

Часовой пояс: UTC + 3


Вы не можете начинать темы
Вы не можете отвечать на сообщения
Вы не можете редактировать свои сообщения
Вы не можете удалять свои сообщения
Вы не можете голосовать в опросах
Вы не можете прикреплять файлы к сообщениям
Вы не можете скачивать файлы