Знаменитый Глайндборн (2004-2012) (лучшие номера фестивальных постановок) / Glorious Glyndebourne (2004-2012) (Jiri Belohlavek, William Christie, Mark Elder, Ivan Fischer, Philippe Jordan, Vladimir Jurowski, Robin Ticcia) [2014, Opera, Blu-ray 1080i]


 

[Цитировать]

Знаменитый Глайндборн (2004-2012) / Glorious Glyndebourne (2004-2012)
Год выпуска: 2014
Лейбл: Opus Arte
Страна-производитель: Великобритания
Жанр: Opera
Продолжительность: 02:30:46
Язык: Английский
Субтитры: Английские, французские, немецкие
Дирижер: Jiri Belohlavek (Иржи Белоглавек), William Christie (Уильям Кристи), Mark Elder (Марк Элдер), Ivan Fischer (Иван Фишер), Philippe Jordan (Филипп Джордан), Vladimir Jurowski (Владимир Юровский), Robin Ticciati (Робин Тиччати)
Исполнители: John Mark Ainsley (Джон Марк Эйнсли), Simone Alberghini (Симоне Альбергини), Emma Bell (Эмма Белл), Nathan Berg (Натан Берг), Bulent Bezduz (Бюлент Бездуз), Sarah Connolly (Сара Коннолли), Lucy Crowe (Люси Кроу), Ruxandra Donose (Руксандра Доносе), Phillip Ens (Филлип Энс), Gerald Finley (Джеральд Финли), Robert Gambill (Роберт Гамбилл), Massimo Giordano (Массимо Джордано), Peter Hall (Питер Холл), Jacques Imbrailo (Жак Имбрело), Marco Jentzsch (Марко Енч), Katarina Karneus (Катарина Карнеус), Adriana Kucerova (Адриана Кучерова), Dina Kuznetsova (Дина Кузнецова), Topi Lehtipuu (Топи Лехтипуу), Marie-Nicole Lemieux (Мари Николь Лемьё), Elena Manistina (Елена Манистина), Sally Matthews (Салли Мэтьюз), Maxim Mironov (Максим Миронов), Laurent Naouri (Лоран Наури), Danielle de Niese (Даниэль де Низ), Anne Sofie von Otter (Анна-София фон Оттер), Luciano di Pasquale (Лучано ди Паскуале), Miah Persson (Миа Перссон), Luca Pisaroni (Лука Пизарони), Vito Priante (Вито Прианте), Christopher Purves (Кристофер Пурвс), Nicolas Rivenq (Никола Ривенк), Nina Stemme (Нина Стемме), Lydia Teuscher (Лидия Тойшер), Anke Vondung (Анке Фондунг)
London Philharmonic Orchestra (Лондонский филармонический оркестр), Orchestra of the Age of Enlightenment (Оркестр эпохи Просвещения), Glyndebourne Chorus (Хор Глайндбёрнского фестиваля)
Треклист:
Wolfgang Amadeus Mozart: Le nozze di Figaro (2012)
Leos Janáček: The Cunning Little Vixen (2012)
Giacomo Puccini: Gianni Schicchi (2004)
Wolfgang Amadeus Mozart: Cosi fan tutte (2006)
Benjamin Britten: Billy Budd (2010)
Giuseppe Verdi: Falstaff (2009)
Georges Bizet: Carmen (2002)
George Frideric Handel: Giulio Cesare (2005)
Richard Wagner: Tristan und Isolde (2007)
Igor Stravinsky: The Rake’s Progress (2010)
Gioachino Rossini: La cenerentola (2005)
Richard Wagner: Die Meistersinger von Nürnberg (2011)

Описание: Создатели диска записали своеобразный киноальманах, в который вошли лучшие, (по их мнению), моменты фестивальных спектаклей разных лет.

Оригинальное описание

An exuberant brainchild of John Christie, Glyndebourne Festival Opera launched in 1934 with a production of Mozart’s The Marriage of Figaro. Since then, Glyndebourne has become a byword for excellence, bringing together the finest operatic musicians of the day for extended rehearsals in an idyllic setting with uncompromised technical and theatrical standards. This celebration includes 12 productions from the last 13 years ranging across ‘signature’ works such as The Marriage of Figaro, classic productions such as The Rake’s Progress with designs by David Hockney, and new adventures in Baroque opera and Wagner.
Бонус: See Opera Differently
Качество видео: Blu-ray
Формат/Контейнер: BDMV
Видео кодек: MPEG4
Аудио кодек: LPCM, DTS
Видео поток: MPEG-4 Video, 1920x1080, 26445 kbps, 29.970 fps
Аудио поток: LPCM, 2304 kbps, 48 kHz, 2 ch. DTS-HD MA, 3839 kbps, 48 kHz, 6 ch

BD-Info

DISC INFO:
Disc Title: Glorious Glyndebourne (2004-2012) (Blu-ray 1080i, AVC, DTS-HD 5.1)
Disc Size: 39 300 363 612 bytes
Protection: AACS
BD-Java: No
BDInfo: 0.5.8
PLAYLIST REPORT:
Name: 00001.MPLS
Length: 2:30:46.937 (h:m:s.ms)
Size: 38 958 041 088 bytes
Total Bitrate: 34,45 Mbps
VIDEO:
Codec Bitrate Description
----- ------- -----------
MPEG-4 AVC Video 26445 kbps 1080i / 29,970 fps / 16:9 / High Profile 4.1
AUDIO:
Codec Language Bitrate Description
----- -------- ------- -----------
LPCM Audio English 2304 kbps 2.0 / 48 kHz / 2304 kbps / 24-bit
DTS-HD Master Audio English 3839 kbps 5.1 / 48 kHz / 3839 kbps / 24-bit (DTS Core: 5.1 / 48 kHz / 1509 kbps / 24-bit)
SUBTITLES:
Codec Language Bitrate Description
----- -------- ------- -----------
Presentation Graphics English 20,629 kbps
Presentation Graphics French 23,263 kbps
Presentation Graphics German 23,655 kbps
FILES:
Name Time In Length Size Total Bitrate
---- ------- ------ ---- -------------
00000.M2TS 0:00:00.000 1:09:02.004 17 539 117 056 33 876
00001.M2TS 1:09:02.004 0:04:58.231 1 289 416 704 34 588
00002.M2TS 1:14:00.235 1:16:46.702 20 129 507 328 34 957
Семпл

Скриншоты



Скриншоты доп. материалов




Показать сообщения:    

Текущее время: 04-Дек 21:19

Часовой пояс: UTC + 3


Вы не можете начинать темы
Вы не можете отвечать на сообщения
Вы не можете редактировать свои сообщения
Вы не можете удалять свои сообщения
Вы не можете голосовать в опросах
Вы не можете прикреплять файлы к сообщениям
Вы не можете скачивать файлы