(Classical) Franz Schubert — Symphonies № 5, 8 & 9 (D 485, 759 & 944) (Zdenek Kosler, Bohdan Warchal) — 1996, APE (image+.cue) lossless


 

[Цитировать]

Symphonies № 5, 8 & 9-
Жанр: Classical
Страна-производитель дисков: Чехия
Год издания дисков: 1996
Издатель (лейбл): Selected Sound Carrier (Prestige Classics)
Номера по каталогу: CD 1930.2074-2 / CD 1930.2075-2
Композитор: Franz Peter Schubert
Исполнители: Slovak Chamber Orchestra under Bohdan Warchal; Slovak Philharmonic Orchestra under Zdenek Kosler
Аудио кодек: ape
Тип рипа: image+.cue
Битрейт аудио: lossless
Продолжительность: 01:55:14
Источник: собственный рип
Наличие сканов в содержимом раздачи: да-

Треклист

CD 1 [00:58:32]
(01-02) Symphony № 8 h-moll D 759 «Unfinished» [00:26:31]
(03-06) Symphony № 5 B-Dur D 485 [00:27:50]
07. Serenade from «Swan Song» d-moll D 957 [00:04:11]-

EAC log

Exact Audio Copy V0.99 prebeta 5 from 4. May 2009
[br]
Отчёт EAC об извлечении, выполненном 6. сентября 2014, 17:44
[br]
Schubert / Symphonies 5 & 8
[br]
Дисковод: PIONEER DVD-RW  DVR-111D   Adapter: 1  ID: 0
[br]
Режим чтения                 : Достоверность
Использование точного потока : Да
Отключение кэша аудио        : Да
Использование указателей C2  : Нет
[br]
Коррекция смещения при чтении                     : 48
Способность читать области Lead-in и Lead-out     : Нет
Заполнение пропущенных сэмплов тишиной            : Да
Удаление блоков с тишиной в начале и конце        : Нет
При вычислениях CRC использовались нулевые сэмплы : Да
Интерфейс                                         : Установленный внешний ASPI-интерфейс
[br]
Выходной формат          : Monkey's Audio (без потерь)
Выбранный битрейт        : Normal Lossless Compression
Качество                 : Высокий
Добавление ID3-тэга      : Нет
Утилита сжатия           : C:\Program Files\Monkey's Audio\MAC.exe
[br]
TOC извлечённого CD
[br]
Трек |   Старт  | Длительность | Начальный сектор | Конечный сектор
---------------------------------------------------------------------
1  |  0:00.32 |   13:57.33   |          32      |      62839
2  | 13:57.65 |   12:33.52   |       62840      |     119366
3  | 26:31.42 |    4:40.23   |      119367      |     140389
4  | 31:11.65 |   12:33.60   |      140390      |     196924
5  | 43:45.50 |    4:56.47   |      196925      |     219171
6  | 48:42.22 |    5:39.15   |      219172      |     244611
7  | 54:21.37 |    4:10.63   |      244612      |     263424
[br]
Характеристики диапазона извлечения и сообщения об ошибках
[br]
Выбранный диапазон
[br]
Имя файла D:\Музыка lossless\Schubert Symphonies № 5, 8 & 9\CD1\Symphonies 5 & 8.wav
[br]
Пиковый уровень 100.0 %
Качество диапазона 100.0 %
CRC теста F61D58B5
CRC копии F61D58B5
Копирование... OK
[br]
Ошибок не произошло
[br]
AccurateRip: сводка
[br]
Трек  1  точное извлечение (доверие 2)  [47DF180D]
Трек  2  точное извлечение (доверие 2)  [D68711D2]
Трек  3  точное извлечение (доверие 2)  [BB299E21]
Трек  4  точное извлечение (доверие 2)  [88C6EE37]
Трек  5  точное извлечение (доверие 2)  [7FD29015]
Трек  6  точность не определена (достоверность 2)  [C99AF51E], AccurateRip вернул [C17AD5FD]
Трек  7  точное извлечение (доверие 2)  [2ABE4D71]
[br]
6 трек(и) скопированы точно
1 трек(и) не удалось проверить на точность
[br]
Некоторые треки не прошли проверку на точность
[br]
Конец отчёта
-

CUE

REM GENRE Classical
REM DATE 1996
REM DISCID 6B0DB807
REM COMMENT "ExactAudioCopy v0.99pb5"
PERFORMER "Schubert"
TITLE "Symphonies 5 & 8"
FILE "Symphonies 5 & 8.ape" WAVE
TRACK 01 AUDIO
TITLE "Symphony № 8 h-moll D 759 «Unfinished» – I. Allegro moderato"
PERFORMER "Schubert"
INDEX 00 00:00:00
INDEX 01 00:00:32
TRACK 02 AUDIO
TITLE "Symphony № 8 h-moll D 759 «Unfinished» – II. Andante con moto"
PERFORMER "Schubert"
INDEX 00 13:52:72
INDEX 01 13:57:65
TRACK 03 AUDIO
TITLE "Symphony № 5 B-Dur D 485 – I. Allegro"
PERFORMER "Schubert"
INDEX 00 26:29:70
INDEX 01 26:31:42
TRACK 04 AUDIO
TITLE "Symphony № 5 B-Dur D 485 – II. Andante con moto"
PERFORMER "Schubert"
INDEX 00 31:10:05
INDEX 01 31:11:65
TRACK 05 AUDIO
TITLE "Symphony № 5 B-Dur D 485 – III. Menuetto. Allegro molto"
PERFORMER "Schubert"
INDEX 00 43:42:57
INDEX 01 43:45:50
TRACK 06 AUDIO
TITLE "Symphony № 5 B-Dur D 485 – IV. Allegro vivace"
PERFORMER "Schubert"
INDEX 00 48:40:45
INDEX 01 48:42:22
TRACK 07 AUDIO
TITLE "Serenade from «Swan Song» d-moll D 957"
PERFORMER "Schubert"
INDEX 00 54:18:55
INDEX 01 54:21:37
-CD 2 [00:56:42]
(01-04) Symphony № 9 C-Dur D 944 «The Great» [00:49:38]
05. Moment Musical Op 94 № 3 f-moll D 780 [00:01:44]
06. Ave Maria Op 52 № 6 B-Dur D 839 [00:05:20]-

EAC log

Exact Audio Copy V0.99 prebeta 5 from 4. May 2009
[br]
Отчёт EAC об извлечении, выполненном 6. сентября 2014, 18:08
[br]
Schubert / Symphony 9
[br]
Дисковод: MITSUMI CR-486ETE   Adapter: 0  ID: 0
[br]
Режим чтения                 : Достоверность
Использование точного потока : Да
Отключение кэша аудио        : Да
Использование указателей C2  : Нет
[br]
Коррекция смещения при чтении                     : 6
Способность читать области Lead-in и Lead-out     : Нет
Заполнение пропущенных сэмплов тишиной            : Да
Удаление блоков с тишиной в начале и конце        : Нет
При вычислениях CRC использовались нулевые сэмплы : Да
Интерфейс                                         : Установленный внешний ASPI-интерфейс
[br]
Выходной формат          : Monkey's Audio (без потерь)
Выбранный битрейт        : Normal Lossless Compression
Качество                 : Высокий
Добавление ID3-тэга      : Нет
Утилита сжатия           : C:\Program Files\Monkey's Audio\MAC.exe
[br]
TOC извлечённого CD
[br]
Трек |   Старт  | Длительность | Начальный сектор | Конечный сектор
---------------------------------------------------------------------
1  |  0:00.00 |   13:23.42   |           0      |      60266
2  | 13:23.42 |   13:52.55   |       60267      |     122721
3  | 27:16.22 |   10:30.63   |      122722      |     170034
4  | 37:47.10 |   11:50.45   |      170035      |     223329
5  | 49:37.55 |    1:44.10   |      223330      |     231139
6  | 51:21.65 |    5:19.62   |      231140      |     255126
[br]
Характеристики диапазона извлечения и сообщения об ошибках
[br]
Выбранный диапазон
[br]
Имя файла D:\Музыка lossless\Schubert Symphonies № 5, 8 & 9\CD2\Schubert - Symphony 9.wav
[br]
Пиковый уровень 73.6 %
Качество диапазона 99.9 %
CRC теста FD885147
CRC копии FD885147
Копирование... OK
[br]
Ошибок не произошло
[br]
AccurateRip: сводка
[br]
Трек  1  точность не определена (достоверность 3)  [D5B89ABF], AccurateRip вернул [83566EAA]
Трек  2  точность не определена (достоверность 3)  [78F83B18], AccurateRip вернул [48EFA6CF]
Трек  3  точность не определена (достоверность 3)  [A2444D37], AccurateRip вернул [D666A265]
Трек  4  точность не определена (достоверность 3)  [5C8AF2C3], AccurateRip вернул [331B5E32]
Трек  5  точность не определена (достоверность 3)  [76AB0FC4], AccurateRip вернул [C7A903ED]
Трек  6  точность не определена (достоверность 3)  [C9266F4C], AccurateRip вернул [F9F5B519]
[br]
Ни один трек не прошёл проверки на точность
В вашей базе может быть иной вариант штамповки диска
[br]
Конец отчёта
-

CUE

REM GENRE Classical
REM DATE 1996
REM DISCID 5D0D4906
REM COMMENT "ExactAudioCopy v0.99pb5"
PERFORMER "Schubert"
TITLE "Symphony 9"
FILE "Symphony 9.ape" WAVE
TRACK 01 AUDIO
TITLE "Symphony № 9 C-Dur D 944 «The Great» – I. Andante. Allegro ma non troppo"
PERFORMER "Schubert"
INDEX 01 00:00:00
TRACK 02 AUDIO
TITLE "Symphony № 9 C-Dur D 944 «The Great» – II. Andante con moto"
PERFORMER "Schubert"
INDEX 01 13:23:42
TRACK 03 AUDIO
TITLE "Symphony № 9 C-Dur D 944 «The Great» – III. Scherzo. Allegro vivace"
PERFORMER "Schubert"
INDEX 01 27:16:22
TRACK 04 AUDIO
TITLE "Symphony № 9 C-Dur D 944 «The Great» – IV. Finale. Allegro vivace"
PERFORMER "Schubert"
INDEX 01 37:47:10
TRACK 05 AUDIO
TITLE "Moment Musical Op 94 № 3 f-moll D 780"
PERFORMER "Schubert"
INDEX 00 49:31:42
INDEX 01 49:37:55
TRACK 06 AUDIO
TITLE "Ave Maria Op 52 № 6 B-Dur D 839"
PERFORMER "Schubert"
INDEX 00 51:15:45
INDEX 01 51:21:65
-
-Торрент-файл перезалит 05.03.2016 добавлены сканы.



Показать сообщения:    

Текущее время: 07-Дек 19:24

Часовой пояс: UTC + 3


Вы не можете начинать темы
Вы не можете отвечать на сообщения
Вы не можете редактировать свои сообщения
Вы не можете удалять свои сообщения
Вы не можете голосовать в опросах
Вы не можете прикреплять файлы к сообщениям
Вы не можете скачивать файлы