(Classical) Peter Tchaikovsky / Пётр Чайковский — String Quartets № 2 & 3 (Tanejev Quartet) — 1990, APE (image+.cue) lossless


 

[Цитировать]

String Quartets № 2 & 3- Жанр: Classical
Страна-производитель диска: Германия
Год издания диска: 1990
Издатель (лейбл): Point Classics
Номер по каталогу: LM 1326
CATALOG: 71415113262
Композитор: Пётр Чайковский
Аудио кодек: ape
Тип рипа: image+.cue
Битрейт аудио: lossless
Продолжительность: 01h08'04"
Источник: собственный рип
Наличие сканов в содержимом раздачи: нет-Треклист:
String Quartet № 2 Op 22 F-Dur / in F Major
01. I. Adagio – Moderato assai [00h11'07"]
02. II. Scherzo: Allergo giusto [00h05'15"]
03. III. Andante ma non tanto [00h10'31"]
04. IV. Finale: Allegro con moto [00h06'08"]
String Quartet № 3 Op 30 eis-moll / in E-sharp minor
05. I. Andante sostenuto – Allegro moderato [00h15'39"]
06. II. Allegretto vivo e scherzando [00h03'43"]
07. III. Andante funebre e doloroso ma con moto [00h09'46"]
08. IV. Finale: Allegro non troppo e risoluto [00h05'56"]
Tanejev Quartet-

EAC log

Exact Audio Copy V0.99 prebeta 5 from 4. May 2009
[br]
Отчёт EAC об извлечении, выполненном 6. сентября 2014, 20:56
[br]
Tchaikovsky / String Quartets
[br]
Дисковод: MITSUMI CR-486ETE   Adapter: 0  ID: 0
[br]
Режим чтения                 : Достоверность
Использование точного потока : Да
Отключение кэша аудио        : Да
Использование указателей C2  : Нет
[br]
Коррекция смещения при чтении                     : 6
Способность читать области Lead-in и Lead-out     : Нет
Заполнение пропущенных сэмплов тишиной            : Да
Удаление блоков с тишиной в начале и конце        : Нет
При вычислениях CRC использовались нулевые сэмплы : Да
Интерфейс                                         : Установленный внешний ASPI-интерфейс
[br]
Выходной формат          : Monkey's Audio (без потерь)
Выбранный битрейт        : Normal Lossless Compression
Качество                 : Высокий
Добавление ID3-тэга      : Нет
Утилита сжатия           : C:\Program Files\Monkey's Audio\MAC.exe
[br]
TOC извлечённого CD
[br]
Трек |   Старт  | Длительность | Начальный сектор | Конечный сектор
---------------------------------------------------------------------
1  |  0:00.00 |   11:07.20   |           0      |      50044
2  | 11:07.20 |    5:14.47   |       50045      |      73641
3  | 16:21.67 |   10:31.33   |       73642      |     120999
4  | 26:53.25 |    6:07.47   |      121000      |     148571
5  | 33:00.72 |   15:39.28   |      148572      |     219024
6  | 48:40.25 |    3:42.62   |      219025      |     235736
7  | 52:23.12 |    9:45.60   |      235737      |     279671
8  | 62:08.72 |    5:55.40   |      279672      |     306336
[br]
Характеристики диапазона извлечения и сообщения об ошибках
[br]
Выбранный диапазон
[br]
Имя файла D:\Музыка lossless\Tchaikovsky String Quartets Taneev Quartet\Tchaikovsky - String Quartets.wav
[br]
Пиковый уровень 77.3 %
Качество диапазона 100.0 %
CRC теста 568F152A
CRC копии 568F152A
Копирование... OK
[br]
Ошибок не произошло
[br]
AccurateRip: сводка
[br]
Трек  1  точное извлечение (доверие 1)  [76627EDC]
Трек  2  точное извлечение (доверие 1)  [D54A4FCC]
Трек  3  точное извлечение (доверие 1)  [A8CEDC87]
Трек  4  точное извлечение (доверие 1)  [A4972082]
Трек  5  точное извлечение (доверие 1)  [A62743C4]
Трек  6  точное извлечение (доверие 1)  [E8CB6622]
Трек  7  точное извлечение (доверие 1)  [016FF288]
Трек  8  точное извлечение (доверие 1)  [EDCE903F]
[br]
Все треки извлечены точно
[br]
Конец отчёта
-

CUE

REM GENRE Classical
REM DATE 1990
REM DISCID 750FF408
REM COMMENT "ExactAudioCopy v0.99pb5"
PERFORMER "Tchaikovsky"
TITLE "String Quartets"
FILE "Tchaikovsky - String Quartets.ape" WAVE
TRACK 01 AUDIO
TITLE "String Quartet № 2 Op 22 F-Dur - I. Adagio - Moderato assai"
PERFORMER "Tchaikovsky"
INDEX 01 00:00:00
TRACK 02 AUDIO
TITLE "String Quartet № 2 Op 22 F-Dur - II. Scherzo: Allergo giusto"
PERFORMER "Tchaikovsky"
INDEX 00 11:04:25
INDEX 01 11:07:20
TRACK 03 AUDIO
TITLE "String Quartet № 2 Op 22 F-Dur - III. Andante ma non tanto"
PERFORMER "Tchaikovsky"
INDEX 00 16:18:35
INDEX 01 16:21:67
TRACK 04 AUDIO
TITLE "String Quartet № 2 Op 22 F-Dur - IV. Finale: Allegro con moto"
PERFORMER "Tchaikovsky"
INDEX 00 26:51:15
INDEX 01 26:53:25
TRACK 05 AUDIO
TITLE "String Quartet № 3 Op 30 eis-moll - I. Andante sostenuto - Allegro moderato"
PERFORMER "Tchaikovsky"
INDEX 00 32:58:25
INDEX 01 33:00:72
TRACK 06 AUDIO
TITLE "String Quartet № 3 Op 30 eis-moll - II. Allegretto vivo e scherzando"
PERFORMER "Tchaikovsky"
INDEX 00 48:36:32
INDEX 01 48:40:25
TRACK 07 AUDIO
TITLE "String Quartet № 3 Op 30 eis-moll - III. Andante funebre e doloroso ma con moto"
PERFORMER "Tchaikovsky"
INDEX 00 52:18:37
INDEX 01 52:23:12
TRACK 08 AUDIO
TITLE "String Quartet № 3 Op 30 eis-moll - IV. Finale: Allegro non troppo e risoluto"
PERFORMER "Tchaikovsky"
INDEX 00 62:05:07
INDEX 01 62:08:72
-



Показать сообщения:    

Текущее время: 08-Дек 09:04

Часовой пояс: UTC + 3


Вы не можете начинать темы
Вы не можете отвечать на сообщения
Вы не можете редактировать свои сообщения
Вы не можете удалять свои сообщения
Вы не можете голосовать в опросах
Вы не можете прикреплять файлы к сообщениям
Вы не можете скачивать файлы