(Classical) The Sunday Brunch Album (Bach, Handel, Vivaldi, Corelli, Purcell, Pachelbel) — 1989, APE (image+.cue) lossless


 

[Цитировать]

The Sunday Brunch Album- Жанр: Classical
Страна-производитель диска: США
Год издания диска: 1989
Издатель (лейбл): CBS Records Inc
Номер по каталогу: MFK 45547 (DIDC 070584)
Аудио кодек: ape
Тип рипа: image+.cue
Битрейт аудио: lossless
Продолжительность: 01h09'28"
Источник: собственный рип
Наличие сканов в содержимом раздачи: нет-Треклист:
01. Johann Sebastian Bach. Brandenburg Concerto № 4 – I. Allegro [00h06'54"]
02. Johann Sebastian Bach. Orchestral Suite № 1 – III. Gavotte I & II [00h04'42"]
Marlboro Festival Orchestra, cond. Pablo Casals
03. Georg Friedrich Händel. Pastoral Symphony from «Messiah» [00h03'08"]
La Grande Ecurie, cond. Jean-Claude Malgoire
04. Antonio Vivaldi. Mandolin Concerto C-Dur / in C Major – II. Largo [00h02'58"]
Philarmonia Virtuosi of New York, cond. Richard Kapp, Mandolin – Leonid Bolotine
05. Arcangelo Corelli. Sonata № 9 Op 5 – II. Gigue [00h02'10"]
Philarmonia Virtuosi of New York, cond. Richard Kapp, Violine – Oscar Ravina
06. Johann Sebastian Bach. Anna Magdalena Notebook – Little Suite (arr. Thomas Frost) [00h07'32"]
Philadelphia Orchestra, cond. Eugene Ormandy
07. Henry Purcell. Abdelazer (The Moor's Revenge) – I. Overture [00h03'56"]
English Chamber Orchestra, cond. Raymond Leppard, Harpsichord – Raymond Leppard
08. Tomaso Albinoni. Adagio [00h10'17"]
Philarmonia Virtuosi of New York, cond. Richard Kapp, Violin – Matitiahu Brawn
09. Vincenzo Tommasini. The Good-Humoured Ladies – Non Presto, in Tempo di Ballo (orchestration of Domenico Scarlatti sonatas) [00h02'52"]
Cleveland Orchestra, cond. Louis Lane
10. Antonio Vivaldi. Guitar Concerto D-Dur / in D-Major – I. Allegro Giusto [00h03'40"]
English Chamber Orchestra, cond. Raymond Leppard, Guitar – John Williams, Harpsichord continuo – Colin Tilney
11. Johann Pachelbel. Canon D-Dur / in D-Major [00h05'42"]
Philarmonia Virtuosi of New York, cond. Richard Kapp
12. Antonio Vivaldi. The Four Seasons / Summer – I. Allegro non Molto [00h05'06"]
English Chamber Orchestra, cond. Pinchas Zukerman, Violin – Pinchas Zukerman, Continuo – Philip Ledger
13. Johann Sebastian Bach. Sheep May Safely Graze (arr. William Walton) [00h05'41"]
Philadelphia Orchestra, cond. Eugene Ormandy
14. Johann Sebastian Bach. Cantata № 51 – V. Alleluja [00h02'06"]
Philarmonia Virtuosi of New York, cond. Richard Kapp, Trumpets – Edward Carroll & Lee Soper
15. Johann Sebastian Bach. Cantata № 51 – III. Allegro Assai [00h02'45"]
Philarmonia Virtuosi of New York, cond. Richard Kapp-

EAC log

Exact Audio Copy V0.99 prebeta 5 from 4. May 2009
[br]
Отчёт EAC об извлечении, выполненном 7. сентября 2014, 11:40
[br]
Various / The Sunday Brunch Album
[br]
Дисковод: PIONEER DVD-RW  DVR-111D   Adapter: 1  ID: 0
[br]
Режим чтения                 : Достоверность
Использование точного потока : Да
Отключение кэша аудио        : Да
Использование указателей C2  : Нет
[br]
Коррекция смещения при чтении                     : 48
Способность читать области Lead-in и Lead-out     : Нет
Заполнение пропущенных сэмплов тишиной            : Да
Удаление блоков с тишиной в начале и конце        : Нет
При вычислениях CRC использовались нулевые сэмплы : Да
Интерфейс                                         : Установленный внешний ASPI-интерфейс
[br]
Выходной формат          : Monkey's Audio (без потерь)
Выбранный битрейт        : Normal Lossless Compression
Качество                 : Высокий
Добавление ID3-тэга      : Нет
Утилита сжатия           : C:\Program Files\Monkey's Audio\MAC.exe
[br]
TOC извлечённого CD
[br]
Трек |   Старт  | Длительность | Начальный сектор | Конечный сектор
---------------------------------------------------------------------
1  |  0:00.00 |    6:53.62   |           0      |      31036
2  |  6:53.62 |    4:41.63   |       31037      |      52174
3  | 11:35.50 |    3:07.52   |       52175      |      66251
4  | 14:43.27 |    2:58.20   |       66252      |      79621
5  | 17:41.47 |    2:09.53   |       79622      |      89349
6  | 19:51.25 |    7:31.65   |       89350      |     123239
7  | 27:23.15 |    3:55.72   |      123240      |     140936
8  | 31:19.12 |   10:17.10   |      140937      |     187221
9  | 41:36.22 |    2:52.28   |      187222      |     200149
10  | 44:28.50 |    3:39.70   |      200150      |     216644
11  | 48:08.45 |    5:41.42   |      216645      |     242261
12  | 53:50.12 |    5:06.00   |      242262      |     265211
13  | 58:56.12 |    5:41.00   |      265212      |     290786
14  | 64:37.12 |    2:06.00   |      290787      |     300236
15  | 66:43.12 |    2:44.70   |      300237      |     312606
[br]
Характеристики диапазона извлечения и сообщения об ошибках
[br]
Выбранный диапазон
[br]
Имя файла D:\Музыка lossless\The Sunday Brunch Album\Various - The Sunday Brunch Album.wav
[br]
Пиковый уровень 89.0 %
Качество диапазона 99.9 %
CRC теста 040B8806
CRC копии 040B8806
Копирование... OK
[br]
Ошибок не произошло
[br]
AccurateRip: сводка
[br]
Трек  1  точность не определена (достоверность 6)  [B71605A1], AccurateRip вернул [EF6B1805]
Трек  2  точность не определена (достоверность 6)  [F5C757A0], AccurateRip вернул [94DCF2F8]
Трек  3  точность не определена (достоверность 6)  [BA62CEEB], AccurateRip вернул [5E90DC07]
Трек  4  точность не определена (достоверность 6)  [4CF2ECDE], AccurateRip вернул [7103F287]
Трек  5  точность не определена (достоверность 6)  [27369206], AccurateRip вернул [A9F5BF22]
Трек  6  точность не определена (достоверность 6)  [57E34748], AccurateRip вернул [3AED2DF2]
Трек  7  точность не определена (достоверность 6)  [8BDBCE7C], AccurateRip вернул [BA406C05]
Трек  8  точность не определена (достоверность 6)  [E4316969], AccurateRip вернул [32E65ED5]
Трек  9  точность не определена (достоверность 6)  [50958702], AccurateRip вернул [F27F1420]
Трек 10  точность не определена (достоверность 6)  [0343BC85], AccurateRip вернул [C8C1B33E]
Трек 11  точность не определена (достоверность 6)  [DE711565], AccurateRip вернул [D307DD7D]
Трек 12  точность не определена (достоверность 5)  [7C6440CC], AccurateRip вернул [07F928B7]
Трек 13  точность не определена (достоверность 5)  [4BAED6BC], AccurateRip вернул [2B667AFF]
Трек 14  точность не определена (достоверность 5)  [A0700C04], AccurateRip вернул [0C057631]
Трек 15  точность не определена (достоверность 5)  [BF975BE4], AccurateRip вернул [05AF84BD]
[br]
Ни один трек не прошёл проверки на точность
В вашей базе может быть иной вариант штамповки диска
[br]
Конец отчёта
-

CUE

REM GENRE Classical
REM DATE 1989
REM DISCID EB10480F
REM COMMENT "ExactAudioCopy v0.99pb5"
PERFORMER "Various"
TITLE "The Sunday Brunch Album"
FILE "Various - The Sunday Brunch Album.ape" WAVE
TRACK 01 AUDIO
TITLE "Brandenburg Concerto № 4 - I. Allegro"
PERFORMER "Bach"
INDEX 01 00:00:00
TRACK 02 AUDIO
TITLE "Orchestral Suite № 1 - III. Gavotte I & II"
PERFORMER "Bach"
INDEX 01 06:53:62
TRACK 03 AUDIO
TITLE "Pastoral Symphony from «Messiah»"
PERFORMER "Handel"
INDEX 01 11:35:50
TRACK 04 AUDIO
TITLE "Mandolin Concerto C-Dur - II. Largo"
PERFORMER "Vivaldi"
INDEX 01 14:43:27
TRACK 05 AUDIO
TITLE "Sonata № 9 Op 5 - II. Gigue"
PERFORMER "Corelli"
INDEX 00 17:41:40
INDEX 01 17:41:47
TRACK 06 AUDIO
TITLE "Anna Magdalena Notebook - Little Suite"
PERFORMER "Bach"
INDEX 00 19:49:57
INDEX 01 19:51:25
TRACK 07 AUDIO
TITLE "Abdelazer (The Moor's Revenge) - I. Overture"
PERFORMER "Purcell"
INDEX 01 27:23:15
TRACK 08 AUDIO
TITLE "Adagio"
PERFORMER "Albinoni"
INDEX 00 31:17:57
INDEX 01 31:19:12
TRACK 09 AUDIO
TITLE "The Good-Humoured Ladies - Non Presto, in Tempo di Ballo"
PERFORMER "Tommasini"
INDEX 01 41:36:22
TRACK 10 AUDIO
TITLE "Guitar Concerto D-Dur - I. Allegro Giusto"
PERFORMER "Vivaldi"
INDEX 01 44:28:50
TRACK 11 AUDIO
TITLE "Canon D-Dur"
PERFORMER "Pachelbel"
INDEX 00 48:06:57
INDEX 01 48:08:45
TRACK 12 AUDIO
TITLE "The Four Seasons - Summer - I. Allegro non Molto"
PERFORMER "Vivaldi"
INDEX 00 53:49:25
INDEX 01 53:50:12
TRACK 13 AUDIO
TITLE "Sheep May Safely Graze"
PERFORMER "Bach"
INDEX 00 58:54:10
INDEX 01 58:56:12
TRACK 14 AUDIO
TITLE "Cantata № 51 - V. Alleluja"
PERFORMER "Bach"
INDEX 01 64:37:12
TRACK 15 AUDIO
TITLE "Cantata № 51 - III. Allegro Assai"
PERFORMER "Bach"
INDEX 01 66:43:12
-



Показать сообщения:    

Текущее время: 08-Дек 19:08

Часовой пояс: UTC + 3


Вы не можете начинать темы
Вы не можете отвечать на сообщения
Вы не можете редактировать свои сообщения
Вы не можете удалять свои сообщения
Вы не можете голосовать в опросах
Вы не можете прикреплять файлы к сообщениям
Вы не можете скачивать файлы