(Classical) Mario Castelnuovo-Tedesco - Sonatina, Robert Beaser - Mountain Songs, Eduardo Morales-Caso - Introduccion y toccata, Joan Albert Amargos - Tango catalana, Astor Piazzolla - Historia del Tango - 2004, FLAC (image+.cue) lossless


 

[Цитировать]

Música para flauta y guitarra
Жанр: Classical
Страна-производитель диска: EU
Год издания диска: 2004
Издатель (лейбл): Lindoro
Номер по каталогу: OP-0818
Дата записи: 8-10.VI.2002
Аудиокодек: FLAC
Тип рипа: image+.cue
Битрейт аудио: lossless
Продолжительность: 1:10'01"
Источник: собственный рип
Наличие сканов в содержимом раздачи: да
Треклист:
Mario Castelnuovo-Tedesco - Sonatina, Op.205
01. I. Allegro gracioso
02. II. Tempo di siciliana
03. III. Allegretto con spirito
Robert Beaser - Mountain Songs
04. Barbara Allen
05. The House Carpenter
06. He's Gone Away
07. Hash You Bye
08. Cindy
09. The Cuckoo
10. Fair And Tender Ladies
11. Quicksilver
Eduardo Morales-Caso
12. Introducción y toccata
Joan Albert Amargós
13. Tango catalana
Astor Piazzolla - Historia del Tango
14. I. Bordel 1900
15. II. Cafe 1930
16. III. Nightclub 1960
17. IV. Concert d'aujourd'hui
Исполнители:
María Esther Guzmán, guitarra
Luis Orden, flauta
-

Лог создания рипа

Exact Audio Copy V1.0 beta 1 from 15. November 2010
EAC extraction logfile from 5. September 2013, 1:39
Various / Musica para flauta y guitarra
Used drive : Optiarc DVD RW AD-7203A Adapter: 4 ID: 1
Read mode : Secure
Utilize accurate stream : Yes
Defeat audio cache : Yes
Make use of C2 pointers : No
Read offset correction : 48
Overread into Lead-In and Lead-Out : No
Fill up missing offset samples with silence : Yes
Delete leading and trailing silent blocks : No
Null samples used in CRC calculations : Yes
Used interface : Native Win32 interface for Win NT & 2000
Used output format : User Defined Encoder
Selected bitrate : 128 kBit/s
Quality : High
Add ID3 tag : No
Command line compressor : C:\Program Files\FLAC\flac.exe
Additional command line options : -T "COMMENT=Ripped by GFox" -8 -V %s
TOC of the extracted CD
Track | Start | Length | Start sector | End sector
---------------------------------------------------------
1 | 0:00.00 | 4:15.53 | 0 | 19177
2 | 4:15.53 | 3:50.48 | 19178 | 36475
3 | 8:06.26 | 4:07.03 | 36476 | 55003
4 | 12:13.29 | 2:51.03 | 55004 | 67831
5 | 15:04.32 | 2:04.04 | 67832 | 77135
6 | 17:08.36 | 5:28.41 | 77136 | 101776
7 | 22:37.02 | 5:03.04 | 101777 | 124505
8 | 27:40.06 | 2:41.07 | 124506 | 136587
9 | 30:21.13 | 4:50.41 | 136588 | 158378
10 | 35:11.54 | 3:34.36 | 158379 | 174464
11 | 38:46.15 | 3:18.45 | 174465 | 189359
12 | 42:04.60 | 4:16.30 | 189360 | 208589
13 | 46:21.15 | 3:29.19 | 208590 | 224283
14 | 49:50.34 | 3:53.19 | 224284 | 241777
15 | 53:43.53 | 7:17.66 | 241778 | 274618
16 | 61:01.44 | 6:06.44 | 274619 | 302112
17 | 67:08.13 | 2:53.31 | 302113 | 315118
Range status and errors
Selected range
Filename D:\EAC\Various - Musica para flauta y guitarra.wav
Peak level 90.6 %
Extraction speed 0.1 X
Range quality 99.9 %
Test CRC 05D0CFE1
Copy CRC 05D0CFE1
Copy OK
No errors occurred
AccurateRip summary
Track 1 not present in database
Track 2 not present in database
Track 3 not present in database
Track 4 not present in database
Track 5 not present in database
Track 6 not present in database
Track 7 not present in database
Track 8 not present in database
Track 9 not present in database
Track 10 not present in database
Track 11 not present in database
Track 12 not present in database
Track 13 not present in database
Track 14 not present in database
Track 15 not present in database
Track 16 not present in database
Track 17 not present in database
None of the tracks are present in the AccurateRip database
End of status report
==== Log checksum 411AC2F60611DA19182B2B6F575F0A2C56003ED9E0F2E32E14901260E294ED5D ====
-Доп. информация: Изумительно красивый инструментал.-



Показать сообщения:    

Текущее время: 21-Янв 11:36

Часовой пояс: UTC + 3


Вы не можете начинать темы
Вы не можете отвечать на сообщения
Вы не можете редактировать свои сообщения
Вы не можете удалять свои сообщения
Вы не можете голосовать в опросах
Вы не можете прикреплять файлы к сообщениям
Вы не можете скачивать файлы