Vincenzo Bellini - La Sonnambula / Беллини - Сомнамбула (Evelino Pido, Natalie Dessay, Juan Diego Florez, Metropolitan Opera) [21.03.2009, Opera, Sat stream 1080i]


 

[Цитировать]

Vincenzo Bellini - La Sonnambula / Беллини - Сомнамбула
(Metropolitan Opera, 21 марта 2009, Natalie Dessay, Juan Diego Flórez)

Год выпуска: 21.03.2009
Страна-производитель: Франция
Жанр: Opera
Продолжительность: 02:18:14
Язык: Итальянский
Субтитры: French hardsubs
Исполнители: Amina – Natalie Dessay
Elvino – Juan Diego Flórez
Rodolfo – Michele Pertusi
Lisa – Jennifer Black
Teresa – Jane Bunnell
Alessio – Jeremy Galyon
Notary – Bernard Fitch
Metropolitan Opera Orchestra and Chorus
Дирижер Evelino Pidò
Треклист: Опера-мелодрама в двух актах.
Описание: Запись постановки в Metropolitan Opera (New-York-City) 21 марта 2009 г.
Программу представляет Дебора Войт.
Доп.материал - "За кулисами/за сценой" (Metropolitan Opera BackStage).

MediaInfo

General
ID : 1 (0x1)
Format : MPEG-TS
File size : 9.10 GiB
Duration : 2h 18mn
Overall bit rate mode : Variable
Overall bit rate : 9 420 Kbps
Video
ID : 1604 (0x644)
Menu ID : 1 (0x1)
Format : AVC
Format/Info : Advanced Video Codec
Format profile : High@L4.0
Format settings, CABAC : Yes
Format settings, ReFrames : 3 frames
Codec ID : 27
Duration : 2h 18mn
Bit rate : 8 761 Kbps
Width : 1 920 pixels
Height : 1 080 pixels
Display aspect ratio : 16:9
Frame rate : 25.000 fps
Standard : Component
Color space : YUV
Chroma subsampling : 4:2:0
Bit depth : 8 bits
Scan type : Interlaced
Scan order : Top Field First
Bits/(Pixel*Frame) : 0.169
Stream size : 8.46 GiB (93%)
Color primaries : BT.709
Transfer characteristics : BT.709
Matrix coefficients : BT.709
Audio
ID : 2604 (0xA2C)
Menu ID : 1 (0x1)
Format : MPEG Audio
Format version : Version 1
Format profile : Layer 2
Codec ID : 3
Duration : 2h 18mn
Bit rate mode : Constant
Bit rate : 192 Kbps
Channel(s) : 2 channels
Sampling rate : 48.0 KHz
Compression mode : Lossy
Delay relative to video : -40ms
Stream size : 190 MiB (2%)
Качество видео: Sat stream
Формат/Контейнер: TS
Видео кодек: H.264
Аудио кодек: MP2
Видео поток: 1920x1080i, 8761 Kbps, 25 fps
Аудио поток: MP2, 192 kbps, 48 kHz, 2.0



Показать сообщения:    

Текущее время: 03-Дек 07:41

Часовой пояс: UTC + 3


Вы не можете начинать темы
Вы не можете отвечать на сообщения
Вы не можете редактировать свои сообщения
Вы не можете удалять свои сообщения
Вы не можете голосовать в опросах
Вы не можете прикреплять файлы к сообщениям
Вы не можете скачивать файлы