(Classical) Franz Schubert — «Trout» Quintet & Piano Trio № 1 (Mariya Yudina / Мария Юдина, Lev Oborin / Лев Оборин, David Oistrakh / Давид Ойстрах) — 1996, APE (image+.cue) lossless


 

[Цитировать]

«Trout» Quintet & Piano Trio № 1- Жанр: Classical
Страна-производитель диска: Россия
Год издания диска: 1996
Издатель (лейбл): РЕСО-Гарантия / RESO-Garantia
Номер по каталогу: SMC CD 0015
Композитор: Franz Peter Schubert
Аудио кодек: ape
Тип рипа: image+.cue
Битрейт аудио: lossless
Продолжительность: 01h10'07"
Источник: собственный рип
Наличие сканов в содержимом раздачи: нет-Треклист:
Piano Quintet Op 114 D 667 A-Dur / in A Major «The Trout»
01. I. Allegro vivace [00h11'16"]
02. II. Andane [00h07'05"]
03. III. Scherzo. Presto [00h03'28"]
04. IV. Tema con variazioni. Andantino – Allegretto [00h07'32"]
05. V. Finale. Allegro giusto [00h05'02"]
Beethoven Quartet, Piano – Mariya Yudina, Double Bass – Vladimir Khomenko
Piano Trio № 1 Op 99 D 898 B-Dur / in B-flat Major
06. I. Allegro moderato [00h10'50"]
07. II. Andante un poco mosso [00h09'44"]
08. III. Scherzo. Allegro [00h06'43"]
09. IV. Rondo. Allegro vivace [00h08'26"]
Piano – Lev Oborin, Violin – David Oistrakh, Cello – Svyatoslav Knushevitsky-

EAC log

Exact Audio Copy V0.99 prebeta 5 from 4. May 2009
[br]
Отчёт EAC об извлечении, выполненном 8. сентября 2014, 11:56
[br]
Schubert / Piano Quintet D 667 & Piano Trio D 898
[br]
Дисковод: PIONEER DVD-RW  DVR-111D   Adapter: 0  ID: 1
[br]
Режим чтения                 : Достоверность
Использование точного потока : Да
Отключение кэша аудио        : Да
Использование указателей C2  : Нет
[br]
Коррекция смещения при чтении                     : 48
Способность читать области Lead-in и Lead-out     : Нет
Заполнение пропущенных сэмплов тишиной            : Да
Удаление блоков с тишиной в начале и конце        : Нет
При вычислениях CRC использовались нулевые сэмплы : Да
Интерфейс                                         : Встроенный Win32-интерфейс для Win NT/2000
[br]
Выходной формат          : Monkey's Audio (без потерь)
Выбранный битрейт        : Normal Lossless Compression
Качество                 : Высокий
Добавление ID3-тэга      : Нет
Утилита сжатия           : C:\Program Files\Monkey's Audio\MAC.exe
[br]
TOC извлечённого CD
[br]
Трек |   Старт  | Длительность | Начальный сектор | Конечный сектор
---------------------------------------------------------------------
1  |  0:00.00 |   11:15.57   |           0      |      50681
2  | 11:15.57 |    7:04.68   |       50682      |      82549
3  | 18:20.50 |    3:28.15   |       82550      |      98164
4  | 21:48.65 |    7:32.32   |       98165      |     132096
5  | 29:21.22 |    5:02.23   |      132097      |     154769
6  | 34:23.45 |   10:50.32   |      154770      |     203551
7  | 45:14.02 |    9:43.43   |      203552      |     247319
8  | 54:57.45 |    6:43.35   |      247320      |     277579
9  | 61:41.05 |    8:26.15   |      277580      |     315544
[br]
Характеристики диапазона извлечения и сообщения об ошибках
[br]
Выбранный диапазон
[br]
Имя файла D:\Музыка lossless\Schubert Beethoven Quartet\Schubert - Piano Quintet D 667 & Piano Trio D 898.wav
[br]
Пиковый уровень 99.4 %
Качество диапазона 99.9 %
CRC теста BE0541DB
CRC копии BE0541DB
Копирование... OK
[br]
Ошибок не произошло
[br]
AccurateRip: сводка
[br]
Трек  1  нет в базе данных
Трек  2  нет в базе данных
Трек  3  нет в базе данных
Трек  4  нет в базе данных
Трек  5  нет в базе данных
Трек  6  нет в базе данных
Трек  7  нет в базе данных
Трек  8  нет в базе данных
Трек  9  нет в базе данных
[br]
Ни одного трека нет в базе AccurateRip
[br]
Конец отчёта
-

CUE

REM GENRE Classical
REM DATE 1996
REM DISCID 71106F09
REM COMMENT "ExactAudioCopy v0.99pb5"
PERFORMER "Schubert"
TITLE "Piano Quintet D 667 & Piano Trio D 898"
FILE "Schubert - Piano Quintet D 667 & Piano Trio D 898.ape" WAVE
TRACK 01 AUDIO
TITLE "Piano Quintet D 667 A-Dur - I. Allegro vivace"
PERFORMER "Schubert"
INDEX 01 00:00:00
TRACK 02 AUDIO
TITLE "Piano Quintet D 667 A-Dur - II. Andante"
PERFORMER "Schubert"
INDEX 00 11:11:30
INDEX 01 11:15:57
TRACK 03 AUDIO
TITLE "Piano Quintet D 667 A-Dur - III. Scherzo. Presto"
PERFORMER "Schubert"
INDEX 00 18:17:62
INDEX 01 18:20:50
TRACK 04 AUDIO
TITLE "Piano Quintet D 667 A-Dur - IV. Tema con variazioni. Andantino - Allegretto"
PERFORMER "Schubert"
INDEX 00 21:45:57
INDEX 01 21:48:65
TRACK 05 AUDIO
TITLE "Piano Quintet D 667 A-Dur - V. Finale. Allegro giusto"
PERFORMER "Schubert"
INDEX 00 29:16:67
INDEX 01 29:21:22
TRACK 06 AUDIO
TITLE "Piano Trio № 1 D 898 B-Dur - I. Allegro moderato"
PERFORMER "Schubert"
INDEX 00 34:20:07
INDEX 01 34:23:45
TRACK 07 AUDIO
TITLE "Piano Trio № 1 D 898 B-Dur - II. Andante un poco mosso"
PERFORMER "Schubert"
INDEX 01 45:14:02
TRACK 08 AUDIO
TITLE "Piano Trio № 1 D 898 B-Dur - III. Scherzo. Allegro"
PERFORMER "Schubert"
INDEX 00 54:56:12
INDEX 01 54:57:45
TRACK 09 AUDIO
TITLE "Piano Trio № 1 D 898 B-Dur - IV. Rondo. Allegro vivace"
PERFORMER "Schubert"
INDEX 00 61:39:72
INDEX 01 61:41:05
-



Показать сообщения:    

Текущее время: 04-Дек 19:23

Часовой пояс: UTC + 3


Вы не можете начинать темы
Вы не можете отвечать на сообщения
Вы не можете редактировать свои сообщения
Вы не можете удалять свои сообщения
Вы не можете голосовать в опросах
Вы не можете прикреплять файлы к сообщениям
Вы не можете скачивать файлы