Моцарт - Милосердие Тита / Mozart - La clemenza di Tito (Langridge, Putnam, Montague, Mahe, Szmytka, Rose) (Nicholas Hytner) [1991, Opera, DVD9]


 

[Цитировать]

-Wolfgang Amadeus Mozart - La clemenza di Tito• Opera seria in two acts; Sung in Italian •
Вольфганг Амадей МОЦАРТ - МИЛОСЕРДИЕ ТИТА

____________________________________________________________________
Год записи/выхода: 1991 / 2001
Лейбл: ArtHouse
Страна-производитель: DU
Жанр: Opera
Продолжительность: 143 min
Язык: Italian
Субтитры: Italian English, German, French, Spanish
Режиссер: Nicholas Hytner
Режиссер видео записи: Robin Lough
Исполнители:
Sesto, a young patrician: Diana Montague
Vitellia, daughter of the deposed Emperor: Ashley Putnam
Annio, a young patrician: Martine Mahé
Tito, Emperor of Rome: Philip Langridge
Servilia, sister of Sesto: Elzbieta Szmytka
Publio, captain of the Patrician Guard: Peter Rose
Glyndebourne Chorus
London Philharmonic Orchestra
Andrew Davis, conductor
Recorded live from the Glyndebourne Festival Opera 1991
Качество видео: DVD9
Формат/Контейнер: DVDVideo
Видео кодек: MPEG2
Аудио кодек: PCM
Видео поток: PAL VBR 720@768x576
Аудио поток: PCM 2.0
Дополнительно: Сканы в составе раздачи

Скриншоты


MediaInfo

General
Complete name                            : Mozart - La Clemenza di Tito (Davies, Glyndebourne)\VIDEO_TS\VTS_02_2.VOB
Format                                   : MPEG-PS
File size                                : 1 024 MiB
Duration                                 : 18mn 39s
Overall bit rate                         : 7 672 Kbps
[br]
Video
ID                                       : 224 (0xE0)
Format                                   : MPEG Video
Format version                           : Version 2
Format profile                           : Main@Main
Format settings, BVOP                    : Yes
Format settings, Matrix                  : Custom
Format settings, GOP                     : M=3, N=15
Duration                                 : 18mn 39s
Bit rate                                 : 5 984 Kbps
Maximum bit rate                         : 8 000 Kbps
Width                                    : 720 pixels
Height                                   : 576 pixels
Display aspect ratio                     : 4:3
Frame rate                               : 25.000 fps
Standard                                 : PAL
Color space                              : YUV
Chroma subsampling                       : 4:2:0
Bit depth                                : 8 bits
Scan type                                : Interlaced
Scan order                               : Top Field First
Compression mode                         : Lossy
Bits/(Pixel*Frame)                       : 0.577
Time code of first frame                 : 10:17:57:20
Time code source                         : Group of pictures header
Stream size                              : 799 MiB (78%)
[br]
Audio
ID                                       : 189 (0xBD)-160 (0xA0)
Format                                   : PCM
Format settings, Endianness              : Big
Format settings, Sign                    : Signed
Muxing mode                              : DVD-Video
Duration                                 : 18mn 39s
Bit rate mode                            : Constant
Bit rate                                 : 1 536 Kbps
Channel(s)                               : 2 channels
Sampling rate                            : 48.0 KHz
Bit depth                                : 16 bits
Delay relative to video                  : -277ms
Stream size                              : 205 MiB (20%)
[br]
Text #1
ID                                       : 189 (0xBD)-32 (0x20)
Format                                   : RLE
Format/Info                              : Run-length encoding
Muxing mode                              : DVD-Video
Duration                                 : 18mn 35s
Delay relative to video                  : 120ms
[br]
Text #2
ID                                       : 189 (0xBD)-33 (0x21)
Format                                   : RLE
Format/Info                              : Run-length encoding
Muxing mode                              : DVD-Video
Duration                                 : 18mn 35s
Delay relative to video                  : 120ms
[br]
Text #3
ID                                       : 189 (0xBD)-34 (0x22)
Format                                   : RLE
Format/Info                              : Run-length encoding
Muxing mode                              : DVD-Video
Duration                                 : 18mn 35s
Delay relative to video                  : 120ms
[br]
Text #4
ID                                       : 189 (0xBD)-35 (0x23)
Format                                   : RLE
Format/Info                              : Run-length encoding
Muxing mode                              : DVD-Video
Duration                                 : 18mn 35s
Delay relative to video                  : 120ms
[br]
Text #5
ID                                       : 189 (0xBD)-36 (0x24)
Format                                   : RLE
Format/Info                              : Run-length encoding
Muxing mode                              : DVD-Video
Duration                                 : 18mn 35s
Delay relative to video                  : 120ms
[br]
Menu



Показать сообщения:    

Текущее время: 11-Дек 09:12

Часовой пояс: UTC + 3


Вы не можете начинать темы
Вы не можете отвечать на сообщения
Вы не можете редактировать свои сообщения
Вы не можете удалять свои сообщения
Вы не можете голосовать в опросах
Вы не можете прикреплять файлы к сообщениям
Вы не можете скачивать файлы