(Classical/Vocal) Mahler - Das Lied von der Erde (Chookasian, Lewis - Philadelphia Orchestra, Ormandy) * Ruckert Lieder (von Stade - London Philharmonic Orchestra, Lewis) - 1994, APE (image+.cue) lossless


 

[Цитировать]

Gustav Mahler - Das Lied von der Erde * Rückert Lieder

Жанр: Classical / Vocal
Страна-производитель диска: Austria
Год издания диска: 1994
Издатель (лейбл): Sony Classics
Номер по каталогу: SBK 53518
Дата записи: 1967-1979
Аудиокодек: APE
Тип рипа: image+.cue
Битрейт аудио: lossless
Продолжительность: 77'31
Источник: собственный рип
Наличие сканов в содержимом раздачи: да
Треклист / Исполнители:
Das Lied von der Erde
1. I. Das Trinklied vom Jammer der Erde
2. II. Der Einsame im Herbst
3. III. Von der Jugend
4. IV. Von der Schoenheit
5. V. Der Trunkene im Fruehling
6. VI. Der Abschied
Lili Chookasian, mezzo-soprano
Richard Lewis, tenor
Philadelphia Orchestra
Eugene Ormandy
Rückert Lieder
7. 'Ich atmet enen linden Duft'
8. 'Liebst du um Schönheit'
9. 'Um Mitternacht'
10. 'Blicke mir nicht in die Lieder'
11. 'Ich bin der Welt abhanden gekommen'
Frederica von Stade, soprano
London Philharmonic Orchestra
Andrew Lewis

Лог создания рипа

Exact Audio Copy V1.0 beta 3 from 29. August 2011
EAC extraction logfile from 3. August 2014, 17:57
Mahler / Das Lied von der Erde - Rückert Lieder
Used drive : TS8XDVDSTRANSCEND Adapter: 1 ID: 0
Read mode : Secure
Utilize accurate stream : Yes
Defeat audio cache : Yes
Make use of C2 pointers : No
Read offset correction : 6
Overread into Lead-In and Lead-Out : No
Fill up missing offset samples with silence : Yes
Delete leading and trailing silent blocks : No
Null samples used in CRC calculations : Yes
Used interface : Native Win32 interface for Win NT & 2000
Used output format : Monkey's Audio Lossless Encoder
Selected bitrate : High Lossless Compression
Quality : High
Add ID3 tag : No
Command line compressor : C:\Program Files (x86)\Exact Audio Copy\MAC\MAC.exe
TOC of the extracted CD
Track | Start | Length | Start sector | End sector
---------------------------------------------------------
1 | 0:00.00 | 8:24.37 | 0 | 37836
2 | 8:24.37 | 9:08.00 | 37837 | 78936
3 | 17:32.37 | 3:06.00 | 78937 | 92886
4 | 20:38.37 | 6:38.38 | 92887 | 122774
5 | 27:17.00 | 4:20.00 | 122775 | 142274
6 | 31:37.00 | 26:56.00 | 142275 | 263474
7 | 58:33.00 | 2:18.00 | 263475 | 273824
8 | 60:51.00 | 2:31.00 | 273825 | 285149
9 | 63:22.00 | 6:08.37 | 285150 | 312786
10 | 69:30.37 | 1:39.38 | 312787 | 320249
11 | 71:10.00 | 6:23.00 | 320250 | 348974
Range status and errors
Selected range
Filename D:\EAC\Mahler - Das Lied von der Erde - Rückert Lieder.wav
Peak level 97.5 %
Extraction speed 3.5 X
Range quality 99.9 %
Test CRC DB89C2A2
Copy CRC DB89C2A2
Copy OK
No errors occurred
AccurateRip summary
Track 1 accurately ripped (confidence 3) [DAA2AD43] (AR v2)
Track 2 accurately ripped (confidence 3) [0B08AB43] (AR v2)
Track 3 accurately ripped (confidence 3) [C1FE5B45] (AR v2)
Track 4 accurately ripped (confidence 3) [277165CD] (AR v2)
Track 5 accurately ripped (confidence 3) [C5106659] (AR v2)
Track 6 accurately ripped (confidence 3) [825AD8E6] (AR v2)
Track 7 accurately ripped (confidence 3) [29C97E72] (AR v2)
Track 8 accurately ripped (confidence 3) [67903C31] (AR v2)
Track 9 accurately ripped (confidence 3) [17BEE1F7] (AR v2)
Track 10 accurately ripped (confidence 3) [E5AE235F] (AR v2)
Track 11 accurately ripped (confidence 3) [E3C02C4B] (AR v2)
All tracks accurately ripped
End of status report
---- CUETools DB Plugin V2.1.3
[CTDB TOCID: Qu_VLY_1BBhJhRTA4Jx5N0grT4s-] found, Submit result: unrecognized or virtual drive
[e09e53ba] (4/4) Accurately ripped
==== Log checksum 718C3E7765D2170AF48D9A30CD9942F081BC9D254E5D3735C6AADD75EA056195 ====

Содержание индексной карты (.CUE)

REM GENRE Vocal
REM DATE 1979
REM DISCID 97122D0B
REM COMMENT "ExactAudioCopy v1.0b3"
CATALOG 0000000000000
PERFORMER "Mahler"
TITLE "Das Lied von der Erde - Rückert Lieder"
FILE "Mahler - Das Lied von der Erde - Rückert Lieder.ape" WAVE
TRACK 01 AUDIO
TITLE "Das Lied von der Erde: I. Das Trinklied vom Jammer der Erde"
PERFORMER "Mahler"
INDEX 01 00:00:00
TRACK 02 AUDIO
TITLE "Das Lied von der Erde: II. Der Einsame im Hrbst"
PERFORMER "Mahler"
INDEX 00 08:21:00
INDEX 01 08:24:37
TRACK 03 AUDIO
TITLE "Das Lied von der Erde: III. Von der Jugend"
PERFORMER "Mahler"
INDEX 00 17:30:00
INDEX 01 17:32:37
TRACK 04 AUDIO
TITLE "Das Lied von der Erde: IV. Von der Schoenheit"
PERFORMER "Mahler"
INDEX 00 20:36:00
INDEX 01 20:38:37
TRACK 05 AUDIO
TITLE "Das Lied von der Erde: V. Der Trunkene im Fruehling"
PERFORMER "Mahler"
INDEX 00 27:14:00
INDEX 01 27:17:00
TRACK 06 AUDIO
TITLE "Das Lied von der Erde: VI. Der Abschied"
PERFORMER "Mahler"
INDEX 00 31:32:25
INDEX 01 31:37:00
TRACK 07 AUDIO
TITLE "Rückert Lieder: 'Ich atmet' enen linden Duft'"
PERFORMER "Mahler"
INDEX 00 58:24:00
INDEX 01 58:33:00
TRACK 08 AUDIO
TITLE "Rückert Lieder: 'Liebst du um Schönheit'"
PERFORMER "Mahler"
INDEX 00 60:48:00
INDEX 01 60:51:00
TRACK 09 AUDIO
TITLE "Rückert Lieder: 'Um Mitternacht'"
PERFORMER "Mahler"
INDEX 00 63:18:00
INDEX 01 63:22:00
TRACK 10 AUDIO
TITLE "Rückert Lieder: 'Blicke mir nicht in die Lieder'"
PERFORMER "Mahler"
INDEX 00 69:28:00
INDEX 01 69:30:37
TRACK 11 AUDIO
TITLE "Rückert Lieder: 'Ich bin der Welt abhanden gekommen'"
PERFORMER "Mahler"
INDEX 00 71:07:00
INDEX 01 71:10:00



Показать сообщения:    

Текущее время: 03-Дек 05:30

Часовой пояс: UTC + 3


Вы не можете начинать темы
Вы не можете отвечать на сообщения
Вы не можете редактировать свои сообщения
Вы не можете удалять свои сообщения
Вы не можете голосовать в опросах
Вы не можете прикреплять файлы к сообщениям
Вы не можете скачивать файлы