(Sacred,Choral) Faure - Requiem: Choir of King's College, Cambridge/Cleobury - 2014, FLAC (tracks+.cue) lossless


 

[Цитировать]

Faure - Requiem: Choir of King's College, Cambridge - Cleobury
Жанр: Kings College Cambridge
Год издания диска: 2014
Издатель (лейбл): Kings College Cambridge
Номер по каталогу: KGS0005
Аудиокодек: FLAC
Тип рипа: tracks+.cue
Битрейт аудио: lossless
Источник: релизер
сайт-источник/ник/другое: вата (surfinmuse)
Наличие сканов в содержимом раздачи: нет
Треклист:
Requiem in D Minor, Op. 48
1. I. Introit
2. Kyrie
3. II. Offertoire
4. III. Sanctus
5. IV. Pie Jesu
6. V. Agnus Dei
7. VI. Libera Me
8. VII. In Paradisum
9. Offertoire
10. Cantique de Jean Racine, Op. 11
Messe Basse
11. I. Kyrie
12. II. Sanctus
13. III. Benedictus
14. IV. Agnus Dei
Исполнители:
Tom Pickard [treble]
Gerald Finley [baritone]
Choir of Kings College Cambridge,
Orchestra of the Age of Enlightenment
Stephen Cleobury
Douglas Tang, Tom Etheridge [organ]

Лог создания рипа

X Lossless Decoder version 20140504 (147.0)
XLD extraction logfile from 2014-09-09 09:58:07 -0700
Choir of King's College / Fauré Requiem
Used drive : PIONEER BD-RW BDR-207D (revision 1.10)
Media type : Pressed CD
Ripper mode : XLD Secure Ripper
Disable audio cache : OK for the drive with a cache less than 1375KiB
Make use of C2 pointers : NO
Read offset correction : 667
Max retry count : 100
Gap status : Analyzed, Appended
TOC of the extracted CD
Track | Start | Length | Start sector | End sector
---------------------------------------------------------
1 | 00:00:00 | 01:33:67 | 0 | 7041
2 | 01:33:67 | 03:54:04 | 7042 | 24595
3 | 05:27:71 | 02:49:66 | 24596 | 37336
4 | 08:17:62 | 03:09:69 | 37337 | 51580
5 | 11:27:56 | 03:03:22 | 51581 | 65327
6 | 14:31:03 | 05:19:72 | 65328 | 89324
7 | 19:51:00 | 04:48:08 | 89325 | 110932
8 | 24:39:08 | 03:19:47 | 110933 | 125904
9 | 27:58:55 | 08:05:18 | 125905 | 162297
10 | 36:03:73 | 05:43:35 | 162298 | 188057
11 | 41:47:33 | 02:10:09 | 188058 | 197816
12 | 43:57:42 | 02:09:60 | 197817 | 207551
13 | 46:07:27 | 02:28:30 | 207552 | 218681
14 | 48:35:57 | 02:57:17 | 218682 | 231973
AccurateRip Summary
Disc not found in AccurateRip DB.
All Tracks
Album gain : 3.13 dB
Peak : 0.998901
Statistics
Read error : 0
Jitter error (maybe fixed) : 0
Retry sector count : 0
Damaged sector count : 0
Track 01
Filename : /Choir of KIng's College - Faure Requiem (2014) [FLAC]/Choir of King's College - Fauré Requiem (2014) [FLAC]/01 Introit.flac
Pre-gap length : 00:02:00
Track gain : 0.70 dB
Peak : 0.729034
CRC32 hash (test run) : 1B85D8E2
CRC32 hash : 1B85D8E2
CRC32 hash (skip zero) : A817B9A3
AccurateRip v1 signature : 10F54783
AccurateRip v2 signature : F655A7A5
->Track not present in AccurateRip database.
Statistics
Read error : 0
Jitter error (maybe fixed) : 0
Retry sector count : 0
Damaged sector count : 0
Track 02
Filename : /Choir of KIng's College - Faure Requiem (2014) [FLAC]/Choir of King's College - Fauré Requiem (2014) [FLAC]/02 Kyrie.flac
Track gain : 1.96 dB
Peak : 0.998627
CRC32 hash (test run) : 0FE4C549
CRC32 hash : 0FE4C549
CRC32 hash (skip zero) : F03299D3
AccurateRip v1 signature : 641D97E3
AccurateRip v2 signature : 59FEC63C
->Track not present in AccurateRip database.
Statistics
Read error : 0
Jitter error (maybe fixed) : 0
Retry sector count : 0
Damaged sector count : 0
Track 03
Filename : /Choir of KIng's College - Faure Requiem (2014) [FLAC]/Choir of King's College - Fauré Requiem (2014) [FLAC]/03 Offertoire.flac
Track gain : 6.35 dB
Peak : 0.347076
CRC32 hash (test run) : 4865C57D
CRC32 hash : 4865C57D
CRC32 hash (skip zero) : B7740B1D
AccurateRip v1 signature : 241E0137
AccurateRip v2 signature : 9ADC0056
->Track not present in AccurateRip database.
Statistics
Read error : 0
Jitter error (maybe fixed) : 0
Retry sector count : 0
Damaged sector count : 0
Track 04
Filename : /Choir of KIng's College - Faure Requiem (2014) [FLAC]/Choir of King's College - Fauré Requiem (2014) [FLAC]/04 Sanctus.flac
Track gain : 0.00 dB
Peak : 0.831299
CRC32 hash (test run) : A4533D10
CRC32 hash : A4533D10
CRC32 hash (skip zero) : 12E92AA1
AccurateRip v1 signature : 3DA54CA6
AccurateRip v2 signature : 7E738A6A
->Track not present in AccurateRip database.
Statistics
Read error : 0
Jitter error (maybe fixed) : 0
Retry sector count : 0
Damaged sector count : 0
Track 05
Filename : /Choir of KIng's College - Faure Requiem (2014) [FLAC]/Choir of King's College - Fauré Requiem (2014) [FLAC]/05 Pie Jesu.flac
Track gain : 6.29 dB
Peak : 0.356537
CRC32 hash (test run) : 1B22CAFA
CRC32 hash : 1B22CAFA
CRC32 hash (skip zero) : 2C5D44DE
AccurateRip v1 signature : 4A012CC5
AccurateRip v2 signature : 0755095A
->Track not present in AccurateRip database.
Statistics
Read error : 0
Jitter error (maybe fixed) : 0
Retry sector count : 0
Damaged sector count : 0
Track 06
Filename : /Choir of KIng's College - Faure Requiem (2014) [FLAC]/Choir of King's College - Fauré Requiem (2014) [FLAC]/06 Agnus Dei.flac
Track gain : 1.25 dB
Peak : 0.707916
CRC32 hash (test run) : EA1A5F43
CRC32 hash : EA1A5F43
CRC32 hash (skip zero) : ACE838E1
AccurateRip v1 signature : E80103A4
AccurateRip v2 signature : 9B9AF34B
->Track not present in AccurateRip database.
Statistics
Read error : 0
Jitter error (maybe fixed) : 0
Retry sector count : 0
Damaged sector count : 0
Track 07
Filename : /Choir of KIng's College - Faure Requiem (2014) [FLAC]/Choir of King's College - Fauré Requiem (2014) [FLAC]/07 Libera me.flac
Track gain : -0.69 dB
Peak : 0.998901
CRC32 hash (test run) : EE5B8A41
CRC32 hash : EE5B8A41
CRC32 hash (skip zero) : 860DB451
AccurateRip v1 signature : 5D31423B
AccurateRip v2 signature : 2A094556
->Track not present in AccurateRip database.
Statistics
Read error : 0
Jitter error (maybe fixed) : 0
Retry sector count : 0
Damaged sector count : 0
Track 08
Filename : /Choir of KIng's College - Faure Requiem (2014) [FLAC]/Choir of King's College - Fauré Requiem (2014) [FLAC]/08 In paradisum.flac
Track gain : 4.70 dB
Peak : 0.834961
CRC32 hash (test run) : D3F68193
CRC32 hash : D3F68193
CRC32 hash (skip zero) : 3B4FD458
AccurateRip v1 signature : D4858280
AccurateRip v2 signature : 76BC8BC5
->Track not present in AccurateRip database.
Statistics
Read error : 0
Jitter error (maybe fixed) : 0
Retry sector count : 0
Damaged sector count : 0
Track 09
Filename : /Choir of KIng's College - Faure Requiem (2014) [FLAC]/Choir of King's College - Fauré Requiem (2014) [FLAC]/09 Offertoire.flac
Pre-gap length : 00:06:09
Track gain : 7.19 dB
Peak : 0.700714
CRC32 hash (test run) : 376CDFFD
CRC32 hash : 376CDFFD
CRC32 hash (skip zero) : 9C70F780
AccurateRip v1 signature : 89C2820F
AccurateRip v2 signature : 65A068FB
->Track not present in AccurateRip database.
Statistics
Read error : 0
Jitter error (maybe fixed) : 0
Retry sector count : 0
Damaged sector count : 0
Track 10
Filename : /Choir of KIng's College - Faure Requiem (2014) [FLAC]/Choir of King's College - Fauré Requiem (2014) [FLAC]/10 Cantique de Jean Racine.flac
Pre-gap length : 00:05:00
Track gain : 3.57 dB
Peak : 0.550323
CRC32 hash (test run) : 2002DADE
CRC32 hash : 2002DADE
CRC32 hash (skip zero) : 52FF7215
AccurateRip v1 signature : 7A358D60
AccurateRip v2 signature : 450E3812
->Track not present in AccurateRip database.
Statistics
Read error : 0
Jitter error (maybe fixed) : 0
Retry sector count : 0
Damaged sector count : 0
Track 11
Filename : /Choir of KIng's College - Faure Requiem (2014) [FLAC]/Choir of King's College - Fauré Requiem (2014) [FLAC]/11 Kyrie.flac
Track gain : 5.46 dB
Peak : 0.472687
CRC32 hash (test run) : 0DF3084E
CRC32 hash : 0DF3084E
CRC32 hash (skip zero) : 5F71FED8
AccurateRip v1 signature : 5B122E95
AccurateRip v2 signature : A36506F2
->Track not present in AccurateRip database.
Statistics
Read error : 0
Jitter error (maybe fixed) : 0
Retry sector count : 0
Damaged sector count : 0
Track 12
Filename : /Choir of KIng's College - Faure Requiem (2014) [FLAC]/Choir of King's College - Fauré Requiem (2014) [FLAC]/12 Sanctus.flac
Track gain : 4.17 dB
Peak : 0.470306
CRC32 hash (test run) : E7B7B5BC
CRC32 hash : E7B7B5BC
CRC32 hash (skip zero) : 08ECF7E5
AccurateRip v1 signature : B896143D
AccurateRip v2 signature : F8EA984E
->Track not present in AccurateRip database.
Statistics
Read error : 0
Jitter error (maybe fixed) : 0
Retry sector count : 0
Damaged sector count : 0
Track 13
Filename : /Choir of KIng's College - Faure Requiem (2014) [FLAC]/Choir of King's College - Fauré Requiem (2014) [FLAC]/13 Benedictus.flac
Track gain : 7.31 dB
Peak : 0.329712
CRC32 hash (test run) : 1DEFF7F6
CRC32 hash : 1DEFF7F6
CRC32 hash (skip zero) : 1FA86C9C
AccurateRip v1 signature : 1F2B9763
AccurateRip v2 signature : CEC3F561
->Track not present in AccurateRip database.
Statistics
Read error : 0
Jitter error (maybe fixed) : 0
Retry sector count : 0
Damaged sector count : 0
Track 14
Filename : /Choir of KIng's College - Faure Requiem (2014) [FLAC]/Choir of King's College - Fauré Requiem (2014) [FLAC]/14 Agnus.flac
Track gain : 10.01 dB
Peak : 0.458679
CRC32 hash (test run) : BADC8C83
CRC32 hash : BADC8C83
CRC32 hash (skip zero) : BBF99D86
AccurateRip v1 signature : BB83D7A2
AccurateRip v2 signature : E2E13B16
->Track not present in AccurateRip database.
Statistics
Read error : 0
Jitter error (maybe fixed) : 0
Retry sector count : 0
Damaged sector count : 0
No errors occurred
End of status report
-----BEGIN XLD SIGNATURE-----
NW74_AfzaKmvFTYWattSl2ebnqMqQ70.UWNmMHQSSn1HP31_HQ06qyqRStVUGQVfS6dG8Y1nTgZKjILwXd8R6211b__h99EofnxZdS4
-----END XLD SIGNATURE-----

Содержание индексной карты (.CUE)

TITLE "Fauré Requiem"
PERFORMER "Choir of King's College"
CATALOG 0822231700524
REM GENRE "Classical"
REM DATE "2014"
REM DISCNUMBER 1
REM TOTALDISCS 1
REM DISCID E50C140E
REM REPLAYGAIN_ALBUM_GAIN 3.13 dB
REM REPLAYGAIN_ALBUM_PEAK 0.998901
FILE "01 Introit.flac" WAVE
TRACK 01 AUDIO
TITLE "Introit"
PERFORMER "Choir of King's College"
SONGWRITER "Gabriel Fauré"
ISRC GBMY51400501
REM REPLAYGAIN_TRACK_GAIN 0.70 dB
REM REPLAYGAIN_TRACK_PEAK 0.729034
INDEX 01 00:00:00
FILE "02 Kyrie.flac" WAVE
TRACK 02 AUDIO
TITLE "Kyrie"
PERFORMER "Choir of King's College"
SONGWRITER "Gabriel Fauré"
ISRC GBMY51400502
REM REPLAYGAIN_TRACK_GAIN 1.96 dB
REM REPLAYGAIN_TRACK_PEAK 0.998627
INDEX 01 00:00:00
FILE "03 Offertoire.flac" WAVE
TRACK 03 AUDIO
TITLE "Offertoire"
PERFORMER "Choir of King's College"
SONGWRITER "Gabriel Fauré"
ISRC GBMY51400503
REM REPLAYGAIN_TRACK_GAIN 6.35 dB
REM REPLAYGAIN_TRACK_PEAK 0.347076
INDEX 01 00:00:00
FILE "04 Sanctus.flac" WAVE
TRACK 04 AUDIO
TITLE "Sanctus"
PERFORMER "Choir of King's College"
SONGWRITER "Gabriel Fauré"
ISRC GBMY51400504
REM REPLAYGAIN_TRACK_GAIN 0.00 dB
REM REPLAYGAIN_TRACK_PEAK 0.831299
INDEX 01 00:00:00
FILE "05 Pie Jesu.flac" WAVE
TRACK 05 AUDIO
TITLE "Pie Jesu"
PERFORMER "Choir of King's College"
SONGWRITER "Gabriel Fauré"
ISRC GBMY51400505
REM REPLAYGAIN_TRACK_GAIN 6.29 dB
REM REPLAYGAIN_TRACK_PEAK 0.356537
INDEX 01 00:00:00
FILE "06 Agnus Dei.flac" WAVE
TRACK 06 AUDIO
TITLE "Agnus Dei"
PERFORMER "Choir of King's College"
SONGWRITER "Gabriel Fauré"
ISRC GBMY51400506
REM REPLAYGAIN_TRACK_GAIN 1.25 dB
REM REPLAYGAIN_TRACK_PEAK 0.707916
INDEX 01 00:00:00
FILE "07 Libera me.flac" WAVE
TRACK 07 AUDIO
TITLE "Libera me"
PERFORMER "Choir of King's College"
SONGWRITER "Gabriel Fauré"
ISRC GBMY51400507
REM REPLAYGAIN_TRACK_GAIN -0.69 dB
REM REPLAYGAIN_TRACK_PEAK 0.998901
INDEX 01 00:00:00
FILE "08 In paradisum.flac" WAVE
TRACK 08 AUDIO
TITLE "In paradisum"
PERFORMER "Choir of King's College"
SONGWRITER "Gabriel Fauré"
ISRC GBMY51400508
REM REPLAYGAIN_TRACK_GAIN 4.70 dB
REM REPLAYGAIN_TRACK_PEAK 0.834961
INDEX 01 00:00:00
TRACK 09 AUDIO
TITLE "Offertoire"
PERFORMER "Choir of King's College"
SONGWRITER "Gabriel Fauré"
ISRC GBMY51400509
REM REPLAYGAIN_TRACK_GAIN 7.19 dB
REM REPLAYGAIN_TRACK_PEAK 0.700714
INDEX 00 03:13:38
FILE "09 Offertoire.flac" WAVE
INDEX 01 00:00:00
TRACK 10 AUDIO
TITLE "Cantique de Jean Racine"
PERFORMER "Choir of King's College"
SONGWRITER "Gabriel Fauré"
ISRC GBMY51400510
REM REPLAYGAIN_TRACK_GAIN 3.57 dB
REM REPLAYGAIN_TRACK_PEAK 0.550323
INDEX 00 08:00:18
FILE "10 Cantique de Jean Racine.flac" WAVE
INDEX 01 00:00:00
FILE "11 Kyrie.flac" WAVE
TRACK 11 AUDIO
TITLE "Kyrie"
PERFORMER "Choir of King's College"
SONGWRITER "Gabriel Fauré"
ISRC GBMY51400511
REM REPLAYGAIN_TRACK_GAIN 5.46 dB
REM REPLAYGAIN_TRACK_PEAK 0.472687
INDEX 01 00:00:00
FILE "12 Sanctus.flac" WAVE
TRACK 12 AUDIO
TITLE "Sanctus"
PERFORMER "Choir of King's College"
SONGWRITER "Gabriel Fauré"
ISRC GBMY51400512
REM REPLAYGAIN_TRACK_GAIN 4.17 dB
REM REPLAYGAIN_TRACK_PEAK 0.470306
INDEX 01 00:00:00
FILE "13 Benedictus.flac" WAVE
TRACK 13 AUDIO
TITLE "Benedictus"
PERFORMER "Choir of King's College"
SONGWRITER "Gabriel Fauré"
ISRC GBMY51400513
REM REPLAYGAIN_TRACK_GAIN 7.31 dB
REM REPLAYGAIN_TRACK_PEAK 0.329712
INDEX 01 00:00:00
FILE "14 Agnus.flac" WAVE
TRACK 14 AUDIO
TITLE "Agnus"
PERFORMER "Choir of King's College"
SONGWRITER "Gabriel Fauré"
ISRC GBMY51400514
REM REPLAYGAIN_TRACK_GAIN 10.01 dB
REM REPLAYGAIN_TRACK_PEAK 0.458679
INDEX 01 00:00:00



Показать сообщения:    

Текущее время: 10-Дек 19:41

Часовой пояс: UTC + 3


Вы не можете начинать темы
Вы не можете отвечать на сообщения
Вы не можете редактировать свои сообщения
Вы не можете удалять свои сообщения
Вы не можете голосовать в опросах
Вы не можете прикреплять файлы к сообщениям
Вы не можете скачивать файлы