(Classical) Frederic Chopin — Cello Sonata Op 65; Introduction and Polonaise brillante Op 3; Grand Duo concertant for Cello and Piano B.70 (Marat Safin, Tatyana Shankova-Safina / Марат Сафин, Татьяна Шанькова-Сафина) — 2001, APE (image+.cue) lossless


 

[Цитировать]

Cello Sonata Op 65; Introduction and Polonaise brillante Op 3; Grand Duo concertant for Cello and Piano B.70- Жанр: Classical
Страна-производитель диска: Россия
Год издания диска: 2001
Год записи фонограммы: 2001
Издатель (лейбл): n/a
Номер по каталогу: n/a
CATALOG: 2100000315253
Композитор: Frederic Chopin
Аудио кодек: ape
Тип рипа: image+.cue
Битрейт аудио: lossless
Продолжительность: 00h53'24"
Источник: собственный рип
Наличие сканов в содержимом раздачи: нет-Треклист:
Cello Sonata g-moll / in G minor Op 65
01. Allegro moderato [00h15'16"]
02. Scherzo. Allegro con brio [00h04'36"]
03. Largo [00h03'51"]
04. Finale. Allegro [00h06'31"]
05. Introduction and Polonaise brillante C-Dur / in C Major Op3 [00h10'01"]
06. Grand Duo concertant for Cello and Piano on themes from «Robert the Devil» by Meyerbeer E-Dur / in E Major Op posth (B.70) [00h13'09"]
Cello – Марат Сафин / Marat Safin, Piano – Татьяна Шанькова-Сафина / Tatyana Shankova-Safina-

EAC log

Exact Audio Copy V0.99 prebeta 5 from 4. May 2009
[br]
Отчёт EAC об извлечении, выполненном 9. сентября 2014, 22:40
[br]
Chopin / Cello & Piano Works
[br]
Дисковод: PIONEER DVD-RW  DVR-111D   Adapter: 1  ID: 0
[br]
Режим чтения                 : Достоверность
Использование точного потока : Да
Отключение кэша аудио        : Да
Использование указателей C2  : Нет
[br]
Коррекция смещения при чтении                     : 48
Способность читать области Lead-in и Lead-out     : Нет
Заполнение пропущенных сэмплов тишиной            : Да
Удаление блоков с тишиной в начале и конце        : Нет
При вычислениях CRC использовались нулевые сэмплы : Да
Интерфейс                                         : Установленный внешний ASPI-интерфейс
[br]
Выходной формат          : Monkey's Audio (без потерь)
Выбранный битрейт        : Normal Lossless Compression
Качество                 : Высокий
Добавление ID3-тэга      : Нет
Утилита сжатия           : C:\Program Files\Monkey's Audio\MAC.exe
[br]
TOC извлечённого CD
[br]
Трек |   Старт  | Длительность | Начальный сектор | Конечный сектор
---------------------------------------------------------------------
1  |  0:00.00 |   15:16.10   |           0      |      68709
2  | 15:16.10 |    4:35.60   |       68710      |      89394
3  | 19:51.70 |    3:51.05   |       89395      |     106724
4  | 23:43.00 |    6:31.05   |      106725      |     136054
5  | 30:14.05 |   10:00.72   |      136055      |     181126
6  | 40:15.02 |   13:09.03   |      181127      |     240304
[br]
Характеристики диапазона извлечения и сообщения об ошибках
[br]
Выбранный диапазон
[br]
Имя файла D:\Музыка lossless\Chopin Cello & Piano Works\Chopin - Cello & Piano Works.wav
[br]
Пиковый уровень 82.6 %
Качество диапазона 99.9 %
CRC теста 857FE133
CRC копии 857FE133
Копирование... OK
[br]
Ошибок не произошло
[br]
AccurateRip: сводка
[br]
Трек  1  нет в базе данных
Трек  2  нет в базе данных
Трек  3  нет в базе данных
Трек  4  нет в базе данных
Трек  5  нет в базе данных
Трек  6  нет в базе данных
[br]
Ни одного трека нет в базе AccurateRip
[br]
Конец отчёта
-

CUE

REM GENRE Classical
REM DATE 2001
REM DISCID 4C0C8406
REM COMMENT "ExactAudioCopy v0.99pb5"
PERFORMER "Chopin"
TITLE "Cello & Piano Works"
FILE "Chopin - Cello & Piano Works.ape" WAVE
TRACK 01 AUDIO
TITLE "Cello Sonata Op 65 g-moll – I. Allegro moderato"
PERFORMER "Chopin"
INDEX 01 00:00:00
TRACK 02 AUDIO
TITLE "Cello Sonata Op 65 g-moll – II. Scherzo. Allegro con brio"
PERFORMER "Chopin"
INDEX 00 15:11:47
INDEX 01 15:16:10
TRACK 03 AUDIO
TITLE "Cello Sonata Op 65 g-moll – III. Largo"
PERFORMER "Chopin"
INDEX 00 19:47:60
INDEX 01 19:51:70
TRACK 04 AUDIO
TITLE "Cello Sonata Op 65 g-moll – IV. Finale. Allegro"
PERFORMER "Chopin"
INDEX 00 23:38:60
INDEX 01 23:43:00
TRACK 05 AUDIO
TITLE "Introduction and Polonaise brillante Op 3 C-Dur – Introduction. Lento. Alla Polacca. Allegro"
PERFORMER "Chopin"
INDEX 00 30:09:42
INDEX 01 30:14:05
TRACK 06 AUDIO
TITLE "Grand Duo concertant for Cello and Piano on themes from «Robert the Devil» by Meyerbeer E-Dur Op posth (B.70) – Introduction. Largo – Andantino – Allegretto – Andante cantabile – Tempo I"
PERFORMER "Chopin"
INDEX 00 40:10:50
INDEX 01 40:15:02
-



Показать сообщения:    

Текущее время: 08-Дек 23:10

Часовой пояс: UTC + 3


Вы не можете начинать темы
Вы не можете отвечать на сообщения
Вы не можете редактировать свои сообщения
Вы не можете удалять свои сообщения
Вы не можете голосовать в опросах
Вы не можете прикреплять файлы к сообщениям
Вы не можете скачивать файлы