(Classical) Ludwig van Beethoven — Cello Variations Op 66 & WoO 45 • Cello Sonatas № 3 & 4 (Op 69, 102/1) (Jorg Metzger, Dieter Goldmann) — 1994, APE (image+.cue) lossless


 

[Цитировать]

Cello Variations Op 66 & WoO 45 • Cello Sonatas № 3 & 4 (Op 69, 102/1)- Жанр: Classical
Страна-производитель диска: Германия
Год издания диска: 1994
Издатель (лейбл): Point Classics
Номер по каталогу: 2670082
CATALOG: 027726700823
Композитор: Ludwig van Beethoven
Аудио кодек: ape
Тип рипа: image+.cue
Битрейт аудио: lossless
Продолжительность: 01h02'52"
Источник: собственный рип
Наличие сканов в содержимом раздачи: нет-Треклист:
01. 12 Cello Variations on «See The Conquering Hero Comes» from Handel's Oratorium «Judas Maccabäus» G-Dur / in G Major WoO 45 [00h13'38"]
02. 12 Cello Variations on «Ein Mädchen oder Weibchen» from Mozart's Opera «Die Zauberflöte» F-Dur / in F Major Op 66 [00h09'56"]
Cello Sonata № 4 C-Dur / in C Major Op 102/1
03. I. Andante – Allegro vivace [00h08'04"]
04. II. Adagio – Allegro vivace [00h07'00"]
Cello Sonata № 3 A-Dur / in A Major Op 69
05. I. Allegro, ma non troppo [00h09'27"]
06. II. Scherzo: Allegro molto [00h05'47"]
07. III. Adagio cantabile – Allegro vivace [00h08'59"]
Cello – Jörg Metzger, Piano – Dieter Goldmann-

EAC log

Exact Audio Copy V0.99 prebeta 5 from 4. May 2009
[br]
Отчёт EAC об извлечении, выполненном 10. сентября 2014, 13:57
[br]
Beethoven / Cello Works
[br]
Дисковод: PIONEER DVD-RW  DVR-111D   Adapter: 0  ID: 1
[br]
Режим чтения                 : Достоверность
Использование точного потока : Да
Отключение кэша аудио        : Да
Использование указателей C2  : Нет
[br]
Коррекция смещения при чтении                     : 48
Способность читать области Lead-in и Lead-out     : Нет
Заполнение пропущенных сэмплов тишиной            : Да
Удаление блоков с тишиной в начале и конце        : Нет
При вычислениях CRC использовались нулевые сэмплы : Да
Интерфейс                                         : Встроенный Win32-интерфейс для Win NT/2000
[br]
Выходной формат          : Monkey's Audio (без потерь)
Выбранный битрейт        : Normal Lossless Compression
Качество                 : Высокий
Добавление ID3-тэга      : Нет
Утилита сжатия           : C:\Program Files\Monkey's Audio\MAC.exe
[br]
TOC извлечённого CD
[br]
Трек |   Старт  | Длительность | Начальный сектор | Конечный сектор
---------------------------------------------------------------------
1  |  0:00.00 |   13:38.25   |           0      |      61374
2  | 13:38.25 |    9:55.50   |       61375      |     106049
3  | 23:34.00 |    8:04.25   |      106050      |     142374
4  | 31:38.25 |    6:59.50   |      142375      |     173849
5  | 38:38.00 |    9:27.15   |      173850      |     216389
6  | 48:05.15 |    5:47.22   |      216390      |     242436
7  | 53:52.37 |    8:59.23   |      242437      |     282884
[br]
Характеристики диапазона извлечения и сообщения об ошибках
[br]
Выбранный диапазон
[br]
Имя файла D:\Музыка lossless\Beethoven Cello Works Goldmann Metzger\Beethoven - Cello Works.wav
[br]
Пиковый уровень 87.6 %
Качество диапазона 100.0 %
CRC теста C801BB2B
CRC копии C801BB2B
Копирование... OK
[br]
Ошибок не произошло
[br]
AccurateRip: сводка
[br]
Трек  1  точность не определена (достоверность 2)  [FAD9E932], AccurateRip вернул [B289ADCB]
Трек  2  точность не определена (достоверность 2)  [1FA21903], AccurateRip вернул [7B0B46D7]
Трек  3  точность не определена (достоверность 2)  [453D05F5], AccurateRip вернул [CD9A48F4]
Трек  4  точность не определена (достоверность 2)  [4E3CAFD2], AccurateRip вернул [E3F20838]
Трек  5  точность не определена (достоверность 2)  [021BE0E1], AccurateRip вернул [1402AA63]
Трек  6  точность не определена (достоверность 2)  [F2E45710], AccurateRip вернул [D9BCFDE5]
Трек  7  точность не определена (достоверность 2)  [1CB8C3DA], AccurateRip вернул [0D03C88B]
[br]
Ни один трек не прошёл проверки на точность
В вашей базе может быть иной вариант штамповки диска
[br]
Конец отчёта
-

CUE

REM GENRE Classical
REM DATE 1994
REM DISCID 4E0EBB07
REM COMMENT "ExactAudioCopy v0.99pb5"
PERFORMER "Beethoven"
TITLE "Cello Works"
FILE "Beethoven - Cello Works.ape" WAVE
TRACK 01 AUDIO
TITLE "12 Variations on «See The Conquering Hero Comes» WoO 45 G-Dur"
PERFORMER "Beethoven"
INDEX 01 00:00:00
TRACK 02 AUDIO
TITLE "12 Varations on «Ein Madchen oder Weibchen» Op 66 F-Dur"
PERFORMER "Beethoven"
INDEX 00 13:31:35
INDEX 01 13:38:25
TRACK 03 AUDIO
TITLE "Cello Sonata № 4 Op 102/1 C-Dur – I. Andante – Allegro vivace"
PERFORMER "Beethoven"
INDEX 00 23:28:00
INDEX 01 23:34:00
TRACK 04 AUDIO
TITLE "Cello Sonata № 4 Op 102/1 C-Dur – II. Adagio – Allegro vivace"
PERFORMER "Beethoven"
INDEX 01 31:38:25
TRACK 05 AUDIO
TITLE "Cello Sonata № 3 Op 69 A-Dur – I. Allegro, ma non troppo"
PERFORMER "Beethoven"
INDEX 00 38:31:12
INDEX 01 38:38:00
TRACK 06 AUDIO
TITLE "Cello Sonata № 3 Op 69 A-Dur – II. Scherzo: Allegro molto"
PERFORMER "Beethoven"
INDEX 00 48:02:00
INDEX 01 48:05:15
TRACK 07 AUDIO
TITLE "Cello Sonata № 3 Op 69 A-Dur – III. Adagio cantabile – Allegro vivace"
PERFORMER "Beethoven"
INDEX 00 53:50:37
INDEX 01 53:52:37
-



Показать сообщения:    

Текущее время: 04-Дек 13:18

Часовой пояс: UTC + 3


Вы не можете начинать темы
Вы не можете отвечать на сообщения
Вы не можете редактировать свои сообщения
Вы не можете удалять свои сообщения
Вы не можете голосовать в опросах
Вы не можете прикреплять файлы к сообщениям
Вы не можете скачивать файлы