(Classical) Ludwig van Beethoven — Piano Trios № 7 & 11 (Op 97 & 121) (Bamberg Trio) — 1994, APE (image+.cue) lossless


 

[Цитировать]

Piano Trios № 7 & 11 (Op 97 & 121)- Жанр: Classical
Страна-производитель диска: Германия
Год издания диска: 1994
Издатель (лейбл): Point Classics
Номер по каталогу: 2670092
CATALOG: 027726700922
Композитор: Ludwig van Beethoven
Аудио кодек: ape
Тип рипа: image+.cue
Битрейт аудио: lossless
Продолжительность: 01h02'39"
Источник: собственный рип
Наличие сканов в содержимом раздачи: нет-Треклист:
Piano Trio № 7 B-Dur Op 97 «Archduke»
01. I. Allegro moderato [00h13'38"]
02. II. Scherzo: Allegro [00h11'42"]
03. III. Andante cantabile ma però con moto, attacca [00h12'26"]
04. IV. Allegro moderato [00h07'19"]
05. Piano Trio № 11 G-Dur Op 121 (Adagio, Variations & Rondò on «Ich bin der Schneider Kakadu» [00h17'35"]
Bamberg Trio-

EAC log

Exact Audio Copy V0.99 prebeta 5 from 4. May 2009
[br]
Отчёт EAC об извлечении, выполненном 10. сентября 2014, 17:20
[br]
Beethoven / Piano Trios (Bamberg Trio)
[br]
Дисковод: PIONEER DVD-RW  DVR-111D   Adapter: 1  ID: 0
[br]
Режим чтения                 : Достоверность
Использование точного потока : Да
Отключение кэша аудио        : Да
Использование указателей C2  : Нет
[br]
Коррекция смещения при чтении                     : 48
Способность читать области Lead-in и Lead-out     : Нет
Заполнение пропущенных сэмплов тишиной            : Да
Удаление блоков с тишиной в начале и конце        : Нет
При вычислениях CRC использовались нулевые сэмплы : Да
Интерфейс                                         : Установленный внешний ASPI-интерфейс
[br]
Выходной формат          : Monkey's Audio (без потерь)
Выбранный битрейт        : Normal Lossless Compression
Качество                 : Высокий
Добавление ID3-тэга      : Нет
Утилита сжатия           : C:\Program Files\Monkey's Audio\MAC.exe
[br]
TOC извлечённого CD
[br]
Трек |   Старт  | Длительность | Начальный сектор | Конечный сектор
---------------------------------------------------------------------
1  |  0:00.00 |   13:38.00   |           0      |      61349
2  | 13:38.00 |   11:41.65   |       61350      |     113989
3  | 25:19.65 |   12:25.60   |      113990      |     169924
4  | 37:45.50 |    7:18.50   |      169925      |     202824
5  | 45:04.25 |   17:34.42   |      202825      |     281916
[br]
Характеристики диапазона извлечения и сообщения об ошибках
[br]
Выбранный диапазон
[br]
Имя файла D:\Музыка lossless\Beethoven Piano Trios (Bamberg Trio)\Beethoven - Piano Trios (Bamberg Trio).wav
[br]
Пиковый уровень 97.9 %
Качество диапазона 100.0 %
CRC теста A9871B3D
CRC копии A9871B3D
Копирование... OK
[br]
Ошибок не произошло
[br]
AccurateRip: сводка
[br]
Трек  1  точность не определена (достоверность 4)  [DA094122], AccurateRip вернул [1B62D3AA]
Трек  2  точность не определена (достоверность 4)  [79B1E446], AccurateRip вернул [0F798CDA]
Трек  3  точность не определена (достоверность 4)  [CD79B02F], AccurateRip вернул [856FA4EC]
Трек  4  точность не определена (достоверность 4)  [DD836F2B], AccurateRip вернул [101BE4ED]
Трек  5  точность не определена (достоверность 4)  [E3934F6F], AccurateRip вернул [FDFCA400]
[br]
Ни один трек не прошёл проверки на точность
В вашей базе может быть иной вариант штамповки диска
[br]
Конец отчёта
-

CUE

REM GENRE Classical
REM DATE 1994
REM DISCID 350EAE05
REM COMMENT "ExactAudioCopy v0.99pb5"
PERFORMER "Beethoven"
TITLE "Piano Trios (Bamberg Trio)"
FILE "Beethoven - Piano Trios (Bamberg Trio).ape" WAVE
TRACK 01 AUDIO
TITLE "Piano Trio № 7 Op 97 B-Dur «Archduke» – I. Allegro moderato"
PERFORMER "Beethoven"
INDEX 01 00:00:00
TRACK 02 AUDIO
TITLE "Piano Trio № 7 Op 97 B-Dur «Archduke» – II. Scherzo: Allegro"
PERFORMER "Beethoven"
INDEX 00 13:36:23
INDEX 01 13:38:00
TRACK 03 AUDIO
TITLE "Piano Trio № 7 Op 97 B-Dur «Archduke» – III. Andante cantabile ma pero con moto, attacca"
PERFORMER "Beethoven"
INDEX 00 25:14:05
INDEX 01 25:19:65
TRACK 04 AUDIO
TITLE "Piano Trio № 7 Op 97 B-Dur «Archduke» – IV. Allegro moderato"
PERFORMER "Beethoven"
INDEX 01 37:45:50
TRACK 05 AUDIO
TITLE "Piano Trio № 11 Op 121 G-Dur"
PERFORMER "Beethoven"
INDEX 00 44:57:00
INDEX 01 45:04:25
-



Показать сообщения:    

Текущее время: 10-Дек 11:52

Часовой пояс: UTC + 3


Вы не можете начинать темы
Вы не можете отвечать на сообщения
Вы не можете редактировать свои сообщения
Вы не можете удалять свои сообщения
Вы не можете голосовать в опросах
Вы не можете прикреплять файлы к сообщениям
Вы не можете скачивать файлы