(Classical) Ludwig van Beethoven — Cello Sonatas & Variations (Op 5, 66, 69 & 102, WoO 45 & 46) (Marina Tarasova / Марина Тарасова, Frank Immo Zichner) — 1994, APE (image+.cue) lossless


 

[Цитировать]

Cello Sonatas & Variations (Op 5, 66, 69 & 102, WoO 45 & 46)-
Жанр: Classical
Страна-производитель дисков: Россия
Год издания дисков: 1994
Год записи фонограммы: 1992
Издатель (лейбл): Russian Disc
Номера по каталогу: RDCD 00247 / RDCD 00248
Композитор: Ludwig van Beethoven
Аудио кодек: ape
Тип рипа: image+.cue
Битрейт аудио: lossless
Продолжительность: 02h17'05"
Источник: собственный рип
Наличие сканов в содержимом раздачи: да-

Треклист

CD1 – 01h11'00"
Cello Sonata № 1 F-Dur Op 5/1
01. I. Adagio sostenuto. Allegro [00h17'02"]
02. II. Allegro vivace [00h07'09"]
Cello Sonata № 2 g-moll Op 5/2
03. I. AAdagio sostenuto ed espressivo. Allegro molto piu tosto presto [00h13'14"]
04. II. Rondo [00h08'58"]
Cello Sonata № 3 A-Dur Op 69
05. I. Allegro, ma non troppo [00h11'16"]
06. II. Scherzo [00h05'15"]
07. III. Adagio cantabile. Allegro vivace [00h08'06"]-

EAC log

Exact Audio Copy V0.99 prebeta 5 from 4. May 2009
[br]
Отчёт EAC об извлечении, выполненном 10. сентября 2014, 23:12
[br]
Beethoven / Cello Sonatas (Tarasova Zichner) CD1
[br]
Дисковод: MITSUMI CR-486ETE   Adapter: 0  ID: 0
[br]
Режим чтения                 : Достоверность
Использование точного потока : Да
Отключение кэша аудио        : Да
Использование указателей C2  : Нет
[br]
Коррекция смещения при чтении                     : 6
Способность читать области Lead-in и Lead-out     : Нет
Заполнение пропущенных сэмплов тишиной            : Да
Удаление блоков с тишиной в начале и конце        : Нет
При вычислениях CRC использовались нулевые сэмплы : Да
Интерфейс                                         : Установленный внешний ASPI-интерфейс
[br]
Выходной формат          : Monkey's Audio (без потерь)
Выбранный битрейт        : Normal Lossless Compression
Качество                 : Высокий
Добавление ID3-тэга      : Нет
Утилита сжатия           : C:\Program Files\Monkey's Audio\MAC.exe
[br]
TOC извлечённого CD
[br]
Трек |   Старт  | Длительность | Начальный сектор | Конечный сектор
---------------------------------------------------------------------
1  |  0:00.00 |   17:02.00   |           0      |      76649
2  | 17:02.00 |    7:09.00   |       76650      |     108824
3  | 24:11.00 |   13:14.00   |      108825      |     168374
4  | 37:25.00 |    8:58.00   |      168375      |     208724
5  | 46:23.00 |   11:16.00   |      208725      |     259424
6  | 57:39.00 |    5:15.00   |      259425      |     283049
7  | 62:54.00 |    8:06.00   |      283050      |     319499
[br]
Характеристики диапазона извлечения и сообщения об ошибках
[br]
Выбранный диапазон
[br]
Имя файла D:\Музыка lossless\Beethoven Cello Sonatas (Tarasova Zichner)\CD1\Beethoven - Cello Sonatas (Tarasova Zichner) CD1.wav
[br]
Пиковый уровень 77.2 %
Качество диапазона 99.9 %
CRC теста A02796AB
CRC копии A02796AB
Копирование... OK
[br]
Ошибок не произошло
[br]
AccurateRip: сводка
[br]
Трек  1  точное извлечение (доверие 1)  [1190EF59]
Трек  2  точное извлечение (доверие 1)  [7766A58B]
Трек  3  точное извлечение (доверие 1)  [2C8DB681]
Трек  4  точное извлечение (доверие 1)  [56556109]
Трек  5  точное извлечение (доверие 1)  [38EB6311]
Трек  6  точное извлечение (доверие 1)  [BC52DDA9]
Трек  7  нет в базе данных
[br]
6 трек(и) скопированы точно
1 трек(и) не содержатся в базе AccurateRip
[br]
Некоторые треки не прошли проверку на точность
[br]
Конец отчёта
-

CUE

REM GENRE Classical
REM DATE 1994
REM DISCID 6010A407
REM COMMENT "ExactAudioCopy v0.99pb5"
PERFORMER "Beethoven"
TITLE "Cello Sonatas (Tarasova Zichner) CD1"
FILE "Beethoven - Cello Sonatas (Tarasova Zichner) CD1.ape" WAVE
TRACK 01 AUDIO
TITLE "Cello Sonata № 1 Op 5/1 F-Dur – I. Adagio sostenuto. Allegro"
PERFORMER "Beethoven"
INDEX 01 00:00:00
TRACK 02 AUDIO
TITLE "Cello Sonata № 1 Op 5/1 F-Dur – II. Allegro vivace"
PERFORMER "Beethoven"
INDEX 00 17:00:00
INDEX 01 17:02:00
TRACK 03 AUDIO
TITLE "Cello Sonata № 2 Op 5/2 g-moll – I. Adagio sostenuto ed espressivo. Allegro molto piu tosto presto"
PERFORMER "Beethoven"
INDEX 00 24:09:00
INDEX 01 24:11:00
TRACK 04 AUDIO
TITLE "Cello Sonata № 2 Op 5/2 g-moll – II. Rondo"
PERFORMER "Beethoven"
INDEX 00 37:23:00
INDEX 01 37:25:00
TRACK 05 AUDIO
TITLE "Cello Sonata № 3 Op 69 A-Dur – I. Allegro, ma non troppo"
PERFORMER "Beethoven"
INDEX 00 46:21:00
INDEX 01 46:23:00
TRACK 06 AUDIO
TITLE "Cello Sonata № 3 Op 69 A-Dur – II. Scherzo"
PERFORMER "Beethoven"
INDEX 00 57:37:00
INDEX 01 57:39:00
TRACK 07 AUDIO
TITLE "Cello Sonata № 3 Op 69 A-Dur – III. Adagio cantabile. Allegro vivace"
PERFORMER "Beethoven"
INDEX 00 62:52:00
INDEX 01 62:54:00
-CD2 – 01h06'05"
Cello Sonata № 4 C-Dur Op 102/1
01. I. Andante. Allegro vivace [00h07'51"]
02. II. Adagio [00h03'07"]
03. III. Allegro vivace [00h04'21"]
Cello Sonata № 5 D-Dur Op 102/2
04. I. Allegro con brio [00h06'36"]
05. II. Adagio con moto sentimento d'affetto [00h08'16"]
06. III. Allegro fugato [00h04'39"]
07. 12 Cello Variations on «See The Conquering Hero Comes» from Handel's Oratorium «Judas Maccabäus» G-Dur WoO 45 [00h12'06"]
08. 12 Cello Variations on «Ein Mädchen oder Weibchen» from Mozart's Opera «Die Zauberflöte» F-Dur Op 66 [00h09'24"]
09. 7 Cello Variations on «Bei Männern, welche Liebe fühlen» from Mozart's Opera «Die Zauberflöte» Es-Dur WoO 46 [00h09'45"]
Cello – Marina Tarasova / Марина Тарасова, Piano – Frank Immo Zichner-

EAC log

Exact Audio Copy V0.99 prebeta 5 from 4. May 2009
[br]
Отчёт EAC об извлечении, выполненном 10. сентября 2014, 23:49
[br]
Beethoven / Cello Sonatas (Tarasova Zichner) CD2
[br]
Дисковод: MITSUMI CR-486ETE   Adapter: 0  ID: 0
[br]
Режим чтения                 : Достоверность
Использование точного потока : Да
Отключение кэша аудио        : Да
Использование указателей C2  : Нет
[br]
Коррекция смещения при чтении                     : 6
Способность читать области Lead-in и Lead-out     : Нет
Заполнение пропущенных сэмплов тишиной            : Да
Удаление блоков с тишиной в начале и конце        : Нет
При вычислениях CRC использовались нулевые сэмплы : Да
Интерфейс                                         : Установленный внешний ASPI-интерфейс
[br]
Выходной формат          : Monkey's Audio (без потерь)
Выбранный битрейт        : Normal Lossless Compression
Качество                 : Высокий
Добавление ID3-тэга      : Нет
Утилита сжатия           : C:\Program Files\Monkey's Audio\MAC.exe
[br]
TOC извлечённого CD
[br]
Трек |   Старт  | Длительность | Начальный сектор | Конечный сектор
---------------------------------------------------------------------
1  |  0:00.00 |    7:51.00   |           0      |      35324
2  |  7:51.00 |    3:07.00   |       35325      |      49349
3  | 10:58.00 |    4:21.00   |       49350      |      68924
4  | 15:19.00 |    6:36.00   |       68925      |      98624
5  | 21:55.00 |    8:16.00   |       98625      |     135824
6  | 30:11.00 |    4:39.00   |      135825      |     156749
7  | 34:50.00 |   12:06.00   |      156750      |     211199
8  | 46:56.00 |    9:24.00   |      211200      |     253499
9  | 56:20.00 |    9:45.00   |      253500      |     297374
[br]
Характеристики диапазона извлечения и сообщения об ошибках
[br]
Выбранный диапазон
[br]
Имя файла D:\Музыка lossless\Beethoven Cello Sonatas (Tarasova Zichner)\CD2\Beethoven - Cello Sonatas (Tarasova Zichner) CD2.wav
[br]
Пиковый уровень 100.0 %
Качество диапазона 100.0 %
CRC теста A197DBEF
CRC копии A197DBEF
Копирование... OK
[br]
Ошибок не произошло
[br]
AccurateRip: сводка
[br]
Трек  1  нет в базе данных
Трек  2  нет в базе данных
Трек  3  нет в базе данных
Трек  4  нет в базе данных
Трек  5  нет в базе данных
Трек  6  нет в базе данных
Трек  7  нет в базе данных
Трек  8  нет в базе данных
Трек  9  нет в базе данных
[br]
Ни одного трека нет в базе AccurateRip
[br]
Конец отчёта
-

CUE

REM GENRE Classical
REM DATE 1994
REM DISCID 710F7D09
REM COMMENT "ExactAudioCopy v0.99pb5"
PERFORMER "Beethoven"
TITLE "Cello Sonatas (Tarasova Zichner) CD2"
FILE "Beethoven - Cello Sonatas (Tarasova Zichner) CD2.ape" WAVE
TRACK 01 AUDIO
TITLE "Cello Sonata № 4 Op 102/1 C-Dur – I. Andante. Allegro vivace"
PERFORMER "Beethoven"
INDEX 01 00:00:00
TRACK 02 AUDIO
TITLE "Cello Sonata № 4 Op 102/1 C-Dur – II. Adagio"
PERFORMER "Beethoven"
INDEX 00 07:49:00
INDEX 01 07:51:00
TRACK 03 AUDIO
TITLE "Cello Sonata № 4 Op 102/1 C-Dur – III. Allegro vivace"
PERFORMER "Beethoven"
INDEX 00 10:56:00
INDEX 01 10:58:00
TRACK 04 AUDIO
TITLE "Cello Sonata № 5 Op 102/2 D-Dur – I. Allegro con brio"
PERFORMER "Beethoven"
INDEX 00 15:17:00
INDEX 01 15:19:00
TRACK 05 AUDIO
TITLE "Cello Sonata № 5 Op 102/2 D-Dur – II. Adagio con moto sentimento d'affetto"
PERFORMER "Beethoven"
INDEX 00 21:53:00
INDEX 01 21:55:00
TRACK 06 AUDIO
TITLE "Cello Sonata № 5 Op 102/2 D-Dur – III. Allegro fugato"
PERFORMER "Beethoven"
INDEX 00 30:09:00
INDEX 01 30:11:00
TRACK 07 AUDIO
TITLE "12 Variations on «See The Conquering Hero Comes» WoO 45 G-Dur"
PERFORMER "Beethoven"
INDEX 00 34:48:00
INDEX 01 34:50:00
TRACK 08 AUDIO
TITLE "12 Varations on «Ein Madchen oder Weibchen» Op 66 F-Dur"
PERFORMER "Beethoven"
INDEX 00 46:54:00
INDEX 01 46:56:00
TRACK 09 AUDIO
TITLE "7 Varations on «Bei Mannern, welche Liebe fuhlen» WoO 46 Es-Dur"
PERFORMER "Beethoven"
INDEX 00 56:18:00
INDEX 01 56:20:00
-



Показать сообщения:    

Текущее время: 07-Дек 21:15

Часовой пояс: UTC + 3


Вы не можете начинать темы
Вы не можете отвечать на сообщения
Вы не можете редактировать свои сообщения
Вы не можете удалять свои сообщения
Вы не можете голосовать в опросах
Вы не можете прикреплять файлы к сообщениям
Вы не можете скачивать файлы