(Classical) Nemanja Radulovic - Les trilles du diable {Kreisler, Wienawski, Vitali, Schubert, Чайковский, Tartini, Sarasate} - 2009, FLAC (tracks+.cue), lossless


 

[Цитировать]

Nemanja Radulovic - Les trilles du diable
Жанр: Classical
Год издания диска: 2009
Издатель (лейбл): Decca
Аудиокодек: FLAC
Тип рипа: tracks+.cue
Битрейт аудио: lossless
Продолжительность: 76:14
Источник (релизер): nep0muk (what)
Наличие сканов в содержимом раздачи: нет
Треклист:
01. Pugnani-Kreisler: Praeludium & Allegro (5:51)
02. Wieniawski: Legende en sol mineur, Op.17 (6:49)
03. Vitali: Chaconne en sol mineur (9:20)
04. Schubert: Rondo en la majeur, D.438 (14:09)
Tchaikovsky: Souvenir d'un lieu cher, Op.42
05. 1. Melodie (re bemol majeur) (3:10)
06. 2. Scherzo (ut mineur) (3:57)
07. 3. Meditation (re mineur) (8:33)
08. Tartini: Sonate en sol mineur, "Le trille du diable", Op.1, No.4 (13:15)
09. Sarasate: Romanza andaluza (Spanische Tanze), Op.22 (5:03)
10. Kreisler: Liebesleid (3:34)
11. Kreisler: Schon Rosmarin (2:33)
Исполнители:
Nemanja Radulovic, Guillaume Fontanarosa, Frederic Dessus - violins
Bertrand Causse - viola
Anne Biragnet - cello
Stanislas Kuchinski - double bass

Лог создания рипа

Exact Audio Copy V0.99 prebeta 5 from 4. May 2009
EAC extraction logfile from 3. May 2011, 21:05
Nemanja Radulovic / Les trilles du diable
Used drive : TSSTcorpCDDVDW TS-L632H Adapter: 0 ID: 0
Read mode : Secure
Utilize accurate stream : Yes
Defeat audio cache : Yes
Make use of C2 pointers : No
Read offset correction : 6
Overread into Lead-In and Lead-Out : No
Fill up missing offset samples with silence : Yes
Delete leading and trailing silent blocks : No
Null samples used in CRC calculations : Yes
Used interface : Native Win32 interface for Win NT & 2000
Gap handling : Appended to previous track
Used output format : User Defined Encoder
Selected bitrate : 768 kBit/s
Quality : High
Add ID3 tag : No
Command line compressor : C:\Program Files (x86)\Exact Audio Copy\FLAC\FLAC.EXE
Additional command line options : -6 -V -T "ARTIST=%a" -T "TITLE=%t" -T "ALBUM=%g" -T "DATE=%y" -T "TRACKNUMBER=%n" -T "GENRE=%m" -T "COMMENT=%e" %s -o %d
TOC of the extracted CD
Track | Start | Length | Start sector | End sector
---------------------------------------------------------
1 | 0:00.00 | 5:50.46 | 0 | 26295
2 | 5:50.46 | 6:48.40 | 26296 | 56935
3 | 12:39.11 | 9:19.51 | 56936 | 98911
4 | 21:58.62 | 14:08.52 | 98912 | 162563
5 | 36:07.39 | 3:09.65 | 162564 | 176803
6 | 39:17.29 | 3:56.55 | 176804 | 194558
7 | 43:14.09 | 8:33.07 | 194559 | 233040
8 | 51:47.16 | 13:15.24 | 233041 | 292689
9 | 65:02.40 | 5:03.05 | 292690 | 315419
10 | 70:05.45 | 3:33.56 | 315420 | 331450
11 | 73:39.26 | 2:33.28 | 331451 | 342953
Track 1
Filename E:\Musique Archive\01. Nemanja Radulovic - Pugnani - Kreisler - Praeludium & Allegro.wav
Pre-gap length 0:00:02.00
Peak level 53.8 %
Track quality 100.0 %
Test CRC F7F0EF20
Copy CRC F7F0EF20
Accurately ripped (confidence 6) [CE4722B3]
Copy OK
Track 2
Filename E:\Musique Archive\02. Nemanja Radulovic - Henryk Wieniawski - Lйgende en sol mineur, op. 17.wav
Peak level 64.2 %
Track quality 100.0 %
Test CRC 2D07C9E8
Copy CRC 2D07C9E8
Accurately ripped (confidence 6) [F43213E5]
Copy OK
Track 3
Filename E:\Musique Archive\03. Nemanja Radulovic - Tomaso Antonio Vitali - Chaconne en sol mineur.wav
Pre-gap length 0:06:48.40
Peak level 79.0 %
Track quality 100.0 %
Test CRC FF48F980
Copy CRC FF48F980
Accurately ripped (confidence 6) [F00F774B]
Copy OK
Track 4
Filename E:\Musique Archive\04. Nemanja Radulovic - Franz Schubert - Rondo en la majeur D.438.wav
Pre-gap length 0:16:08.16
Peak level 85.3 %
Track quality 100.0 %
Test CRC C6FA3E28
Copy CRC C6FA3E28
Accurately ripped (confidence 6) [2C78F638]
Copy OK
Track 5
Filename E:\Musique Archive\05. Nemanja Radulovic - Piotr Ilyich Tchaпkovski - Souvenir d'un lieu cher, op.42 - I. Mйlodie (rй bйmol majeur).wav
Pre-gap length 0:30:16.68
Peak level 38.9 %
Track quality 100.0 %
Test CRC F507E464
Copy CRC F507E464
Accurately ripped (confidence 6) [399A7119]
Copy OK
Track 6
Filename E:\Musique Archive\06. Nemanja Radulovic - Piotr Ilyich Tchaпkovski - Souvenir d'un lieu cher, op.42 - II. Scherzo (ut mineur).wav
Pre-gap length 0:33:26.58
Peak level 57.3 %
Track quality 100.0 %
Test CRC B78D7513
Copy CRC B78D7513
Accurately ripped (confidence 6) [84A09BAF]
Copy OK
Track 7
Filename E:\Musique Archive\07. Nemanja Radulovic - Piotr Ilyich Tchaпkovski - Souvenir d'un lieu cher, op.42 - III. Mйditation (rй mineur).wav
Pre-gap length 0:37:23.38
Peak level 68.8 %
Track quality 100.0 %
Test CRC C59D8A78
Copy CRC C59D8A78
Accurately ripped (confidence 6) [3983514B]
Copy OK
Track 8
Filename E:\Musique Archive\08. Nemanja Radulovic - Giuseppe Tartini - Sonate en sol mineur, « Le trille du diable » op. 1, n°4.wav
Pre-gap length 0:45:56.45
Peak level 78.7 %
Track quality 99.9 %
Test CRC F15832CF
Copy CRC F15832CF
Accurately ripped (confidence 6) [93E5446A]
Copy OK
Track 9
Filename E:\Musique Archive\09. Nemanja Radulovic - Pablo de Sarasate - Romanza andaluza (Spanische Tдnze) op.22.wav
Pre-gap length 0:59:11.69
Peak level 58.9 %
Track quality 100.0 %
Test CRC 85ED566F
Copy CRC 85ED566F
Accurately ripped (confidence 6) [2C00BCBE]
Copy OK
Track 10
Filename E:\Musique Archive\10. Nemanja Radulovic - Fritz Kreisler - Liebesleid.wav
Pre-gap length 1:04:14.74
Peak level 88.5 %
Track quality 100.0 %
Test CRC 2B94235D
Copy CRC 2B94235D
Accurately ripped (confidence 6) [735D80DB]
Copy OK
Track 11
Filename E:\Musique Archive\11. Nemanja Radulovic - Fritz Kreisler - Schцn Rosmarin.wav
Pre-gap length 1:07:48.55
Peak level 83.5 %
Track quality 100.0 %
Test CRC 20B9DEAE
Copy CRC 20B9DEAE
Accurately ripped (confidence 6) [4F3B98A1]
Copy OK
All tracks accurately ripped
No errors occurred
End of status report

Содержание индексной карты (.CUE)

REM GENRE Classical
REM DATE 2009
REM DISCID 9011DC0B
REM COMMENT "ExactAudioCopy v0.99pb5"
PERFORMER "Nemanja Radulovic"
TITLE "Les trilles du diable"
FILE "01 - Pugnani-Kreisler- Praeludium & Allegro.wav" WAVE
TRACK 01 AUDIO
TITLE "Pugnani-Kreisler: Praeludium & Allegro"
PERFORMER "Nemanja Radulovic"
INDEX 01 00:00:00
FILE "02 - Wieniawski- Legende en sol mineur, Op.17.wav" WAVE
TRACK 02 AUDIO
TITLE "Wieniawski: Legende en sol mineur, Op.17"
PERFORMER "Nemanja Radulovic"
INDEX 01 00:00:00
FILE "03 - Vitali- Chaconne en sol mineur.wav" WAVE
TRACK 03 AUDIO
TITLE "Vitali: Chaconne en sol mineur"
PERFORMER "Nemanja Radulovic"
INDEX 01 00:00:00
FILE "04 - Schubert- Rondo en la majeur, D.438.wav" WAVE
TRACK 04 AUDIO
TITLE "Schubert: Rondo en la majeur, D.438"
PERFORMER "Nemanja Radulovic"
INDEX 01 00:00:00
FILE "05 - Tchaikovsky- Souvenir d'un lieu cher, Op.42- Melodie (re bemol majeur).wav" WAVE
TRACK 05 AUDIO
TITLE "Tchaikovsky: Souvenir d'un lieu cher, Op.42: Melodie (re bemol majeur)"
PERFORMER "Nemanja Radulovic"
INDEX 01 00:00:00
FILE "06 - Tchaikovsky- Souvenir d'un lieu cher, Op.42- Scherzo (ut mineur).wav" WAVE
TRACK 06 AUDIO
TITLE "Tchaikovsky: Souvenir d'un lieu cher, Op.42: Scherzo (ut mineur)"
PERFORMER "Nemanja Radulovic"
INDEX 01 00:00:00
FILE "07 - Tchaikovsky- Souvenir d'un lieu cher, Op.42- Meditation (re mineur).wav" WAVE
TRACK 07 AUDIO
TITLE "Tchaikovsky: Souvenir d'un lieu cher, Op.42: Meditation (re mineur)"
PERFORMER "Nemanja Radulovic"
INDEX 01 00:00:00
FILE "08 - Tartini- Sonate en sol mineur, ' Le trille du diable', Op.1, No.4.wav" WAVE
TRACK 08 AUDIO
TITLE "Tartini: Sonate en sol mineur, ' Le trille du diable', Op.1, No.4"
PERFORMER "Nemanja Radulovic"
INDEX 01 00:00:00
FILE "09 - Sarasate- Romanza andaluza (Spanische Tanze), Op.22.wav" WAVE
TRACK 09 AUDIO
TITLE "Sarasate: Romanza andaluza (Spanische Tanze), Op.22"
PERFORMER "Nemanja Radulovic"
INDEX 01 00:00:00
FILE "10 - Kreisler- Liebesleid.wav" WAVE
TRACK 10 AUDIO
TITLE "Kreisler: Liebesleid"
PERFORMER "Nemanja Radulovic"
INDEX 01 00:00:00
FILE "11 - Kreisler- Schon Rosmarin.wav" WAVE
TRACK 11 AUDIO
TITLE "Kreisler: Schon Rosmarin"
PERFORMER "Nemanja Radulovic"
INDEX 01 00:00:00

Отчет CUETools

[CUETools log; Date: 12.09.2014 0:19:13; Version: 2.1.5]
[CTDB TOCID: s2PxgfQYhxSScexHtPa58WmSMy0-] found.
Track | CTDB Status
1 | (5/5) Accurately ripped
2 | (5/5) Accurately ripped
3 | (5/5) Accurately ripped
4 | (3/5) Accurately ripped
5 | (5/5) Accurately ripped
6 | (5/5) Accurately ripped
7 | (3/5) Accurately ripped
8 | (5/5) Accurately ripped
9 | (5/5) Accurately ripped
10 | (5/5) Accurately ripped
11 | (5/5) Accurately ripped
[AccurateRip ID: 00220d4b-01260491-9011dc0b] found.
Track [ CRC | V2 ] Status
01 [ce4722b3|4628363b] (07+05/15) Accurately ripped
02 [f43213e5|1a10bb96] (07+05/15) Accurately ripped
03 [f00f774b|06c296e6] (07+05/15) Accurately ripped
04 [2c78f638|64d0da82] (07+05/15) Accurately ripped
05 [399a7119|ad68fe8c] (07+05/15) Accurately ripped
06 [84a09baf|0cbf94d5] (07+05/15) Accurately ripped
07 [3983514b|2210081d] (07+05/15) Accurately ripped
08 [93e5446a|a9b662d0] (07+05/15) Accurately ripped
09 [2c00bcbe|dde41b30] (07+05/15) Accurately ripped
10 [735d80db|4dcfef26] (07+04/14) Accurately ripped
11 [4f3b98a1|72c60463] (07+05/15) Accurately ripped
Offsetted by 325:
01 [af33d7ab] (00/15) No match (V2 was not tested)
02 [499925c6] (00/15) No match (V2 was not tested)
03 [d9621598] (00/15) No match (V2 was not tested)
04 [43e2bc80] (00/15) No match (V2 was not tested)
05 [37ada386] (00/15) No match (V2 was not tested)
06 [7c4bd0e5] (00/15) No match (V2 was not tested)
07 [560fcc53] (00/15) No match (V2 was not tested)
08 [534d4c98] (00/15) No match (V2 was not tested)
09 [4cae9c2b] (00/15) No match (V2 was not tested)
10 [c6bf50d8] (00/14) No match (V2 was not tested)
11 [5eea80fc] (00/15) No match (V2 was not tested)
Track Peak [ CRC32 ] [W/O NULL] [ LOG ]
-- 88,4 [91005C12] [5F1CB34A]
01 53,8 [F7F0EF20] [F5137904] CRC32
02 64,2 [2D07C9E8] [C7289D9C] CRC32
03 79,0 [FF48F980] [9772BC77] CRC32
04 85,3 [C6FA3E28] [64635683] CRC32
05 38,9 [F507E464] [51F6DE47] CRC32
06 57,3 [B78D7513] [7DCF9671] CRC32
07 68,8 [C59D8A78] [E18901B9] CRC32
08 78,7 [F15832CF] [0EBC170F] CRC32
09 58,9 [85ED566F] [CECEB536] CRC32
10 88,4 [2B94235D] [AFBF295B] CRC32
11 83,5 [20B9DEAE] [2786519B] CRC32

Review by James Manheim

Serbian-born violinist Nemanja Radulovic has the look of a Romantic-era virtuoso violinist, and the booklet for this live recital release goes so far as to suggest that he resembles Paganini. Be that as it may, he apparently has a good deal of personal charisma if one is to judge by the applause that greets the final selections (other audience sounds are edited out). The charisma doesn't all come through on a recording, but what's here is sufficient to mark Radulovic as one to watch. Devil's Trills is not, as might easily be supposed, the name of the album but instead refers to Radulovic's small accompanying group of strings; the program does include Tartini's The Devil's Trill, but there's nothing diabolical about Fritz Kreisler's Schön Rosmarin or the other recital standards on the program. That program is a bit broader than others of its kind, with Schubert's Rondo in A major, D. 438, serving as a kind of moment of formal repose among sets of flashier pieces, and Radulovic controls it well. He's certainly technically adept in the showpieces, and he has a warm tone without using a great deal of expression; the four Tchaikovsky pieces included don't suit him particularly well. Kreisler's Praeludium and Allegro have likewise been given more oomph, but it is Kreisler whom Radulovic follows most closely among the great violinists, and the concluding Liebesleid (without its usual Liebesfreud partner) and Schön Rosmarin together show a young performer with an appealing kind of confidence that might well next be applied to ratcheting up the sentiment level where appropriate. The sound engineering from this 2007 recital in Reims and its realization by the Art Act label are unfussy.



Показать сообщения:    

Текущее время: 05-Дек 07:30

Часовой пояс: UTC + 3


Вы не можете начинать темы
Вы не можете отвечать на сообщения
Вы не можете редактировать свои сообщения
Вы не можете удалять свои сообщения
Вы не можете голосовать в опросах
Вы не можете прикреплять файлы к сообщениям
Вы не можете скачивать файлы