(Classical) Helene Grimaud,Sol Gabetta - Duo (Schumann-Drei Fantasiestucke;Brahms-Sonata for Piano and Violoncello No. 1; Debussy-Sonata for Violoncello and Piano; Шостакович - Sonata for Violoncello and Piano) - 2012, FLAC (image+.cue) lossless


 

[Цитировать]

Helene Grimaud,Sol Gabetta - Duo(Schumann-Drei Fantasiestucke;Brahms-Sonata for Piano and Violoncello No.1; Debussy - Sonata for Violoncello and Piano; Шостакович - Sonata for Violoncello and Piano) Жанр: Classical
Страна-производитель диска: E.U.
Год издания диска: 2012
Издатель (лейбл): Deutsche Grammophon GmbH
Номер по каталогу: 479 0090
Дата записи: 5/2012
Аудиокодек: FLAC
Тип рипа: image+.cue
Битрейт аудио: lossless
Продолжительность: 01:15:10
Источник: JVA
Наличие сканов в содержимом раздачи: да
Треклист:
Robert Schumann (1810-1856)
Drei Fantasiestücke op. 73
01. I. Zart und mit Ausdruck (3:13)
02. II. Lebhaft, leicht (3:13)
03. III. Rasch und mit Feuer (3:53)
Johannes Brahms (1833-1897)
Sonata for Piano and Violoncello No. 1 e-moll op. 38
04. I. Allegro non troppo (14:27)
05. II. Allegretto quasi Menuetto - Trio (5:26)
06. III. Allegro (6:22)
Claude Debussy (1862-1918)
Sonata for Violoncello and Piano d-moll
07. I. Prologue. Lent, sostenutoe molto risoluto (4:36)
08. II. Serenade. Moderement anime (3:13)
09. III. Final. Anime, leger et nerveux (3:40)
Дмитрий Дмитриевич Шостакович (1906-1975)
Sonata for Violoncello and Piano d-moll op. 40
10. I. Allegro non troppo (11:56)
11. II. Allego (2:50)
12. III. Largo (8:21)
13. IV. Allegro (3:58)
Исполнители:
Hélène Grimaud piano
Sol Gabetta violoncello

Лог создания рипа

Exact Audio Copy V0.99 prebeta 5 from 4. May 2009
Отчёт EAC об извлечении, выполненном 4. сентября 2014, 12:56
Grimaud Hйlиne_Sol Gabetta_Schumann_Brahms_Debussy_Schostakowitsch / DUO
Дисковод: ATAPI iHAS124 E Adapter: 0 ID: 0
Режим чтения : Достоверность
Использование точного потока : Да
Отключение кэша аудио : Да
Использование указателей C2 : Нет
Коррекция смещения при чтении : 6
Способность читать области Lead-in и Lead-out : Нет
Заполнение пропущенных сэмплов тишиной : Да
Удаление блоков с тишиной в начале и конце : Нет
При вычислениях CRC использовались нулевые сэмплы : Да
Интерфейс : Встроенный Win32-интерфейс для Win NT/2000
Выходной формат : Пользовательский кодировщик
Выбранный битрейт : 768 kBit/s
Качество : Высокий
Добавление ID3-тэга : Нет
Утилита сжатия : C:\Program Files\Exact Audio Copy\Flac\flac.exe
Дополнительные параметры : -6 -V -T "ARTIST=%a" -T "TITLE=%t" -T "ALBUM=%g" -T "DATE=%y" -T "TRACKNUMBER=%n" -T "GENRE=%m" -T "COMMENT=%e" %s -o %d
TOC извлечённого CD
Трек | Старт | Длительность | Начальный сектор | Конечный сектор
---------------------------------------------------------------------
1 | 0:00.00 | 3:12.40 | 0 | 14439
2 | 3:12.40 | 3:13.15 | 14440 | 28929
3 | 6:25.55 | 3:52.73 | 28930 | 46402
4 | 10:18.53 | 14:26.60 | 46403 | 111412
5 | 24:45.38 | 5:26.18 | 111413 | 135880
6 | 30:11.56 | 6:21.71 | 135881 | 164526
7 | 36:33.52 | 4:36.23 | 164527 | 185249
8 | 41:10.00 | 3:12.53 | 185250 | 199702
9 | 44:22.53 | 3:40.14 | 199703 | 216216
10 | 48:02.67 | 11:55.63 | 216217 | 269904
11 | 59:58.55 | 2:50.30 | 269905 | 282684
12 | 62:49.10 | 8:21.36 | 282685 | 320295
13 | 71:10.46 | 3:57.55 | 320296 | 338125
Характеристики диапазона извлечения и сообщения об ошибках
Выбранный диапазон
Имя файла C:\EAC\Grimaud Helene Sol Gabetta - DUO\Grimaud Helene Sol Gabetta - DUO.wav
Пиковый уровень 96.9 %
Качество диапазона 100.0 %
CRC копии E0277869
Копирование... OK
Ошибок не произошло
AccurateRip: сводка
Трек 1 точное извлечение (доверие 14) [01B74417]
Трек 2 точное извлечение (доверие 14) [82C734E6]
Трек 3 точное извлечение (доверие 14) [4D9212B4]
Трек 4 точное извлечение (доверие 14) [8D1209FE]
Трек 5 точное извлечение (доверие 14) [7C7C7E46]
Трек 6 точное извлечение (доверие 14) [34AF0585]
Трек 7 точное извлечение (доверие 14) [640CA7BA]
Трек 8 точное извлечение (доверие 14) [B772DFFE]
Трек 9 точное извлечение (доверие 14) [A26FA71A]
Трек 10 точное извлечение (доверие 14) [7880FC7A]
Трек 11 точное извлечение (доверие 14) [A009188C]
Трек 12 точное извлечение (доверие 13) [3464D22B]
Трек 13 точное извлечение (доверие 14) [BE2F6405]
Все треки извлечены точно
Конец отчёта

Лог проверки качества


Скриншот спектра частот




Показать сообщения:    

Текущее время: 09-Дек 22:26

Часовой пояс: UTC + 3


Вы не можете начинать темы
Вы не можете отвечать на сообщения
Вы не можете редактировать свои сообщения
Вы не можете удалять свои сообщения
Вы не можете голосовать в опросах
Вы не можете прикреплять файлы к сообщениям
Вы не можете скачивать файлы