(Classical, Harp, Violin) Marielle Nordmann & Nemanja Radulovic - Apres un reve {Chopin, Oberthur, Чайковский, Bartok, Mangore, Ravel, Massenet, Saint-Saens, Faure} - 2012, FLAC (tracks+.cue), lossless


 

[Цитировать]

Marielle Nordmann & Nemanja Radulovic - Apres un reve
Жанр: Classical, Harp, Violin
Страна-производитель диска: Франция
Год издания диска: 2012
Издатель (лейбл): Transart
Номер по каталогу: TR174
Аудиокодек: FLAC
Тип рипа: tracks+.cue
Битрейт аудио: lossless
Продолжительность: 58:31
Источник (релизер): kiv (what)
Наличие сканов в содержимом раздачи: да
Треклист:
01. Chopin: Nocturne in C sharp minor, No.20 Op. posth. (4:12)
02. Oberthur: Berceuse, Op.299 (4:14)
03. Oberthur: Le Sylphe (4:29)
04. Tchaikovsky: The Queen of Spades: Polina's Romance (5:14)
Bartok: Romanian Folk Dances
05. 1. Stick Dance (1:25)
06. 2. Sash Dance (0:29)
07. 3. Stamping Dance (1:11)
08. 4. Hornpipe Dance (1:40)
09. 5. Polkas (1:33)
Mangore: La Catedral
10. 1. Andante religioso (1:38)
11. 2. Preludio (Saudade) (1:56)
12. 3. Allegro solemne (2:35)
13. Ravel: Piece en forme de Habanera (3:06)
14. Massenet: Meditation from Thais (5:15)
15. Mangore: Etude de concert (2:54)
16. Saint-Saens: Fantaisie in A major, Op.124 (13:32)
17. Faure: Apres un reve (3:08)
Исполнители:
Marielle Nordmann - harp
Nemanja Radulovic - violin
Recorded in the Temple Titon, Paris on June 20-23, 2011.

Лог создания рипа

X Lossless Decoder version 20130602 (143.2)
XLD extraction logfile from 2013-07-15 15:04:22 +0200
Various Artists / Après un rêve...
Used drive : HL-DT-ST DVDRW GS23N (revision SB00)
Media type : Pressed CD
Ripper mode : XLD Secure Ripper
Disable audio cache : OK for the drive with a cache less than 1375KiB
Make use of C2 pointers : NO
Read offset correction : 667
Max retry count : 100
Gap status : Analyzed, Appended (except HTOA)
TOC of the extracted CD
Track | Start | Length | Start sector | End sector
---------------------------------------------------------
1 | 00:00:00 | 04:12:07 | 0 | 18906
2 | 04:12:07 | 04:13:62 | 18907 | 37943
3 | 08:25:69 | 04:28:60 | 37944 | 58103
4 | 12:54:54 | 05:14:37 | 58104 | 81690
5 | 18:09:16 | 01:25:29 | 81691 | 88094
6 | 19:34:45 | 00:29:32 | 88095 | 90301
7 | 20:04:02 | 01:11:21 | 90302 | 95647
8 | 21:15:23 | 01:39:62 | 95648 | 103134
9 | 22:55:10 | 01:33:10 | 103135 | 110119
10 | 24:28:20 | 01:38:26 | 110120 | 117495
11 | 26:06:46 | 01:56:14 | 117496 | 126209
12 | 28:02:60 | 02:35:14 | 126210 | 137848
13 | 30:37:74 | 03:06:20 | 137849 | 151818
14 | 33:44:19 | 05:14:50 | 151819 | 175418
15 | 38:58:69 | 02:54:07 | 175419 | 188475
16 | 41:53:01 | 13:31:62 | 188476 | 249362
17 | 55:24:63 | 03:08:10 | 249363 | 263472
AccurateRip Summary
Disc not found in AccurateRip DB.
All Tracks
Album gain : -2.57 dB
Peak : 0.972687
Statistics
Read error : 0
Jitter error (maybe fixed) : 0
Retry sector count : 0
Damaged sector count : 0
Track 01
Filename : /Users/Kevin/Public/N. Radulovic, M. Nordmann - Après un rêve... (2012) [FLAC]/01. Nocturne in C-Sharp Minor No. 20, Op. posth. [Frédéric Chopin].flac
Pre-gap length : 00:02:00
Track gain : -2.57 dB
Peak : 0.823273
CRC32 hash (test run) : E79AD8F8
CRC32 hash : E79AD8F8
CRC32 hash (skip zero) : 6A1FDC37
AccurateRip v1 signature : 1A4806B9
AccurateRip v2 signature : B495FC7F
->Track not present in AccurateRip database.
Statistics
Read error : 0
Jitter error (maybe fixed) : 0
Retry sector count : 0
Damaged sector count : 0
Track 02
Filename : /Users/Kevin/Public/N. Radulovic, M. Nordmann - Après un rêve... (2012) [FLAC]/02. Berceuse, Op. 299 [Karl Oberthür].flac
Track gain : -1.21 dB
Peak : 0.620422
CRC32 hash (test run) : D8C94953
CRC32 hash : D8C94953
CRC32 hash (skip zero) : 5580A1B7
AccurateRip v1 signature : 268A9A18
AccurateRip v2 signature : F1370BD0
->Track not present in AccurateRip database.
Statistics
Read error : 0
Jitter error (maybe fixed) : 0
Retry sector count : 0
Damaged sector count : 0
Track 03
Filename : /Users/Kevin/Public/N. Radulovic, M. Nordmann - Après un rêve... (2012) [FLAC]/03. Le Sylphe [Karl Oberthür].flac
Track gain : -2.79 dB
Peak : 0.876160
CRC32 hash (test run) : 84514DCB
CRC32 hash : 84514DCB
CRC32 hash (skip zero) : 18B57D1E
AccurateRip v1 signature : C5B5AF83
AccurateRip v2 signature : 8C407C27
->Track not present in AccurateRip database.
Statistics
Read error : 0
Jitter error (maybe fixed) : 0
Retry sector count : 0
Damaged sector count : 0
Track 04
Filename : /Users/Kevin/Public/N. Radulovic, M. Nordmann - Après un rêve... (2012) [FLAC]/04. The Queen of Spades: Polina's Romance [Peter Illyich Tchaikovsky].flac
Track gain : -1.90 dB
Peak : 0.786041
CRC32 hash (test run) : 63F6DD27
CRC32 hash : 63F6DD27
CRC32 hash (skip zero) : 8FD27BC7
AccurateRip v1 signature : 9D4F10D1
AccurateRip v2 signature : 65F572EF
->Track not present in AccurateRip database.
Statistics
Read error : 0
Jitter error (maybe fixed) : 0
Retry sector count : 0
Damaged sector count : 0
Track 05
Filename : /Users/Kevin/Public/N. Radulovic, M. Nordmann - Après un rêve... (2012) [FLAC]/05. Romanian Folk Dances: Stick Dance [Béla Bartók].flac
Track gain : -3.55 dB
Peak : 0.967133
CRC32 hash (test run) : 915C2270
CRC32 hash : 915C2270
CRC32 hash (skip zero) : 7626AB48
AccurateRip v1 signature : F11518EC
AccurateRip v2 signature : DC0339CA
->Track not present in AccurateRip database.
Statistics
Read error : 0
Jitter error (maybe fixed) : 0
Retry sector count : 0
Damaged sector count : 0
Track 06
Filename : /Users/Kevin/Public/N. Radulovic, M. Nordmann - Après un rêve... (2012) [FLAC]/06. Romanian Folk Dances: Sash Dance [Béla Bartók].flac
Track gain : 2.16 dB
Peak : 0.456604
CRC32 hash (test run) : B0BB9AB8
CRC32 hash : B0BB9AB8
CRC32 hash (skip zero) : B1375A4D
AccurateRip v1 signature : 8713A0C0
AccurateRip v2 signature : 3ACDDEFB
->Track not present in AccurateRip database.
Statistics
Read error : 0
Jitter error (maybe fixed) : 0
Retry sector count : 0
Damaged sector count : 0
Track 07
Filename : /Users/Kevin/Public/N. Radulovic, M. Nordmann - Après un rêve... (2012) [FLAC]/07. Romanian Folk Dances: Stamping Dance [Béla Bartók].flac
Track gain : 9.78 dB
Peak : 0.282410
CRC32 hash (test run) : 0EA3173F
CRC32 hash : 0EA3173F
CRC32 hash (skip zero) : F7D2E0D7
AccurateRip v1 signature : 025F4180
AccurateRip v2 signature : 1281A6EC
->Track not present in AccurateRip database.
Statistics
Read error : 0
Jitter error (maybe fixed) : 0
Retry sector count : 0
Damaged sector count : 0
Track 08
Filename : /Users/Kevin/Public/N. Radulovic, M. Nordmann - Après un rêve... (2012) [FLAC]/08. Romanian Folk Dances: Hornpipe Dance [Béla Bartók].flac
Track gain : -4.75 dB
Peak : 0.915710
CRC32 hash (test run) : EDA1096B
CRC32 hash : EDA1096B
CRC32 hash (skip zero) : 24A864D6
AccurateRip v1 signature : 06819B55
AccurateRip v2 signature : 18A8980B
->Track not present in AccurateRip database.
Statistics
Read error : 0
Jitter error (maybe fixed) : 0
Retry sector count : 0
Damaged sector count : 0
Track 09
Filename : /Users/Kevin/Public/N. Radulovic, M. Nordmann - Après un rêve... (2012) [FLAC]/09. Romanian Folk Dance: Polkass [Béla Bartók].flac
Track gain : -4.90 dB
Peak : 0.862579
CRC32 hash (test run) : 4117C5BC
CRC32 hash : 4117C5BC
CRC32 hash (skip zero) : 23111F8D
AccurateRip v1 signature : D1EDD6F3
AccurateRip v2 signature : 122CE50A
->Track not present in AccurateRip database.
Statistics
Read error : 0
Jitter error (maybe fixed) : 0
Retry sector count : 0
Damaged sector count : 0
Track 10
Filename : /Users/Kevin/Public/N. Radulovic, M. Nordmann - Après un rêve... (2012) [FLAC]/10. La Catedral: Andante religioso [Agustin Barrios Mangoré].flac
Track gain : -4.70 dB
Peak : 0.921753
CRC32 hash (test run) : E4E6D97C
CRC32 hash : E4E6D97C
CRC32 hash (skip zero) : 4E4B04F3
AccurateRip v1 signature : D3FCF282
AccurateRip v2 signature : 97BD661F
->Track not present in AccurateRip database.
Statistics
Read error : 0
Jitter error (maybe fixed) : 0
Retry sector count : 0
Damaged sector count : 0
Track 11
Filename : /Users/Kevin/Public/N. Radulovic, M. Nordmann - Après un rêve... (2012) [FLAC]/11. La Catedral: Preludio, Saudade [Agustin Barrios Mangoré].flac
Track gain : -2.37 dB
Peak : 0.847412
CRC32 hash (test run) : 761470B1
CRC32 hash : 761470B1
CRC32 hash (skip zero) : B0316B83
AccurateRip v1 signature : 603977D8
AccurateRip v2 signature : 1A701F0C
->Track not present in AccurateRip database.
Statistics
Read error : 0
Jitter error (maybe fixed) : 0
Retry sector count : 0
Damaged sector count : 0
Track 12
Filename : /Users/Kevin/Public/N. Radulovic, M. Nordmann - Après un rêve... (2012) [FLAC]/12. La Catedral: Allegro solemne [Agustin Barrios Mangoré].flac
Track gain : -4.65 dB
Peak : 0.972687
CRC32 hash (test run) : D3D05C23
CRC32 hash : D3D05C23
CRC32 hash (skip zero) : 6D6F4D38
AccurateRip v1 signature : A0A90968
AccurateRip v2 signature : D55AB20A
->Track not present in AccurateRip database.
Statistics
Read error : 0
Jitter error (maybe fixed) : 0
Retry sector count : 0
Damaged sector count : 0
Track 13
Filename : /Users/Kevin/Public/N. Radulovic, M. Nordmann - Après un rêve... (2012) [FLAC]/13. Pièce en forme de Habanera [Maurice Ravel].flac
Track gain : 2.59 dB
Peak : 0.550232
CRC32 hash (test run) : 7908E49B
CRC32 hash : 7908E49B
CRC32 hash (skip zero) : C9CF2765
AccurateRip v1 signature : 7BA7CAE6
AccurateRip v2 signature : 3370F1F0
->Track not present in AccurateRip database.
Statistics
Read error : 0
Jitter error (maybe fixed) : 0
Retry sector count : 0
Damaged sector count : 0
Track 14
Filename : /Users/Kevin/Public/N. Radulovic, M. Nordmann - Après un rêve... (2012) [FLAC]/14. Meditation from Thaïs [Jules Massenet].flac
Track gain : -2.08 dB
Peak : 0.856323
CRC32 hash (test run) : 5753759F
CRC32 hash : 5753759F
CRC32 hash (skip zero) : 8B718754
AccurateRip v1 signature : D356BFE7
AccurateRip v2 signature : 1A45CA5C
->Track not present in AccurateRip database.
Statistics
Read error : 0
Jitter error (maybe fixed) : 0
Retry sector count : 0
Damaged sector count : 0
Track 15
Filename : /Users/Kevin/Public/N. Radulovic, M. Nordmann - Après un rêve... (2012) [FLAC]/15. Etude de concert [Agustin Barrios Mangoré].flac
Track gain : -3.47 dB
Peak : 0.862640
CRC32 hash (test run) : D10183B8
CRC32 hash : D10183B8
CRC32 hash (skip zero) : 6A604B00
AccurateRip v1 signature : E1D8C23C
AccurateRip v2 signature : 979F2857
->Track not present in AccurateRip database.
Statistics
Read error : 0
Jitter error (maybe fixed) : 0
Retry sector count : 0
Damaged sector count : 0
Track 16
Filename : /Users/Kevin/Public/N. Radulovic, M. Nordmann - Après un rêve... (2012) [FLAC]/16. Fantaisie for Violin and Harp in A Major, Op. 124 [Camille Saint-Saëns].flac
Track gain : -2.33 dB
Peak : 0.931610
CRC32 hash (test run) : 7FBCC57F
CRC32 hash : 7FBCC57F
CRC32 hash (skip zero) : EF2AF5C1
AccurateRip v1 signature : B90E1BA4
AccurateRip v2 signature : F9D62D9B
->Track not present in AccurateRip database.
Statistics
Read error : 0
Jitter error (maybe fixed) : 0
Retry sector count : 0
Damaged sector count : 0
Track 17
Filename : /Users/Kevin/Public/N. Radulovic, M. Nordmann - Après un rêve... (2012) [FLAC]/17. Après un rêve [Gabriel Fauré].flac
Track gain : -0.78 dB
Peak : 0.783661
CRC32 hash (test run) : A0AA0635
CRC32 hash : A0AA0635
CRC32 hash (skip zero) : A0AD7496
AccurateRip v1 signature : 02E093CC
AccurateRip v2 signature : 259F533D
->Track not present in AccurateRip database.
Statistics
Read error : 0
Jitter error (maybe fixed) : 0
Retry sector count : 0
Damaged sector count : 0
No errors occurred
End of status report

Содержание индексной карты (.CUE)

TITLE "Apres un reve"
PERFORMER "Marielle Nordmann & Nemanja Radulovic"
REM GENRE "Classical"
REM DATE "2012"
REM DISCID E90DB811
REM REPLAYGAIN_ALBUM_GAIN -2.57 dB
REM REPLAYGAIN_ALBUM_PEAK 0.972687
FILE "01 - Chopin- Nocturne in C sharp minor, No.20 Op. posth..flac" WAVE
TRACK 01 AUDIO
TITLE "Chopin: Nocturne in C sharp minor, No.20 Op. posth."
ISRC FR92Z1200026
REM REPLAYGAIN_TRACK_GAIN -2.57 dB
REM REPLAYGAIN_TRACK_PEAK 0.823273
INDEX 01 00:00:00
FILE "02 - Oberthur- Berceuse, Op.299.flac" WAVE
TRACK 02 AUDIO
TITLE "Oberthur: Berceuse, Op.299"
ISRC FR92Z1200027
REM REPLAYGAIN_TRACK_GAIN -1.21 dB
REM REPLAYGAIN_TRACK_PEAK 0.620422
INDEX 01 00:00:00
FILE "03 - Oberthur- Le Sylphe.flac" WAVE
TRACK 03 AUDIO
TITLE "Oberthur: Le Sylphe"
ISRC FR92Z1200028
REM REPLAYGAIN_TRACK_GAIN -2.79 dB
REM REPLAYGAIN_TRACK_PEAK 0.876160
INDEX 01 00:00:00
FILE "04 - Tchaikovsky- The Queen of Spades- Polina's Romance.flac" WAVE
TRACK 04 AUDIO
TITLE "Tchaikovsky: The Queen of Spades: Polina's Romance"
ISRC FR92Z1200029
REM REPLAYGAIN_TRACK_GAIN -1.90 dB
REM REPLAYGAIN_TRACK_PEAK 0.786041
INDEX 01 00:00:00
FILE "05 - Bartok- Romanian Folk Dances- Stick Dance.flac" WAVE
TRACK 05 AUDIO
TITLE "Bartok: Romanian Folk Dances: Stick Dance"
ISRC FR92Z1200030
REM REPLAYGAIN_TRACK_GAIN -3.55 dB
REM REPLAYGAIN_TRACK_PEAK 0.967133
INDEX 01 00:00:00
FILE "06 - Bartok- Romanian Folk Dances- Sash Dance.flac" WAVE
TRACK 06 AUDIO
TITLE "Bartok: Romanian Folk Dances: Sash Dance"
ISRC FR92Z1200031
REM REPLAYGAIN_TRACK_GAIN 2.16 dB
REM REPLAYGAIN_TRACK_PEAK 0.456604
INDEX 01 00:00:00
FILE "07 - Bartok- Romanian Folk Dances- Stamping Dance.flac" WAVE
TRACK 07 AUDIO
TITLE "Bartok: Romanian Folk Dances: Stamping Dance"
ISRC FR92Z1200032
REM REPLAYGAIN_TRACK_GAIN 9.78 dB
REM REPLAYGAIN_TRACK_PEAK 0.282410
INDEX 01 00:00:00
FILE "08 - Bartok- Romanian Folk Dances- Hornpipe Dance.flac" WAVE
TRACK 08 AUDIO
TITLE "Bartok: Romanian Folk Dances: Hornpipe Dance"
ISRC FR92Z1200033
REM REPLAYGAIN_TRACK_GAIN -4.75 dB
REM REPLAYGAIN_TRACK_PEAK 0.915710
INDEX 01 00:00:00
FILE "09 - Bartok- Romanian Folk Dances- Polkas.flac" WAVE
TRACK 09 AUDIO
TITLE "Bartok: Romanian Folk Dances: Polkas"
ISRC FR92Z1200034
REM REPLAYGAIN_TRACK_GAIN -4.90 dB
REM REPLAYGAIN_TRACK_PEAK 0.862579
INDEX 01 00:00:00
FILE "10 - Mangore- La Catedral- Andante religioso.flac" WAVE
TRACK 10 AUDIO
TITLE "Mangore: La Catedral: Andante religioso"
ISRC FR92Z1200035
REM REPLAYGAIN_TRACK_GAIN -4.70 dB
REM REPLAYGAIN_TRACK_PEAK 0.921753
INDEX 01 00:00:00
FILE "11 - Mangore- La Catedral- Preludio (Saudade).flac" WAVE
TRACK 11 AUDIO
TITLE "Mangore: La Catedral: Preludio (Saudade)"
ISRC FR92Z1200036
REM REPLAYGAIN_TRACK_GAIN -2.37 dB
REM REPLAYGAIN_TRACK_PEAK 0.847412
INDEX 01 00:00:00
FILE "12 - Mangore- La Catedral- Allegro solemne.flac" WAVE
TRACK 12 AUDIO
TITLE "Mangore: La Catedral: Allegro solemne"
ISRC FR92Z1200037
REM REPLAYGAIN_TRACK_GAIN -4.65 dB
REM REPLAYGAIN_TRACK_PEAK 0.972687
INDEX 01 00:00:00
FILE "13 - Ravel- Piece en forme de Habanera.flac" WAVE
TRACK 13 AUDIO
TITLE "Ravel: Piece en forme de Habanera"
ISRC FR92Z1200038
REM REPLAYGAIN_TRACK_GAIN 2.59 dB
REM REPLAYGAIN_TRACK_PEAK 0.550232
INDEX 01 00:00:00
FILE "14 - Massenet- Meditation from Thais.flac" WAVE
TRACK 14 AUDIO
TITLE "Massenet: Meditation from Thais"
ISRC FR92Z1200039
REM REPLAYGAIN_TRACK_GAIN -2.08 dB
REM REPLAYGAIN_TRACK_PEAK 0.856323
INDEX 01 00:00:00
FILE "15 - Mangore- Etude de concert.flac" WAVE
TRACK 15 AUDIO
TITLE "Mangore: Etude de concert"
ISRC FR92Z1200040
REM REPLAYGAIN_TRACK_GAIN -3.47 dB
REM REPLAYGAIN_TRACK_PEAK 0.862640
INDEX 01 00:00:00
FILE "16 - Saint-Saens- Fantaisie in A major, Op.124.flac" WAVE
TRACK 16 AUDIO
TITLE "Saint-Saens: Fantaisie in A major, Op.124"
ISRC FR92Z1200041
REM REPLAYGAIN_TRACK_GAIN -2.33 dB
REM REPLAYGAIN_TRACK_PEAK 0.931610
INDEX 01 00:00:00
FILE "17 - Faure- Apres un reve.flac" WAVE
TRACK 17 AUDIO
TITLE "Faure: Apres un reve"
ISRC FR92Z1200042
REM REPLAYGAIN_TRACK_GAIN -0.78 dB
REM REPLAYGAIN_TRACK_PEAK 0.783661
INDEX 01 00:00:00

Об альбоме (сборнике)

Le jeune violoniste Nemanja Radulovic unit sa fougue et sa modernité à l'élégance absolue de la harpiste Marielle Nordmann, et le dialogue de ces deux grands solistes nous parle de choses essentielles, laissant éclater au grand jour la complicité qui les unit depuis de nombreuses années. Ce couple hors norme nous offre un programme de duos, véritables petits bijoux de délicatesse. Musique angélique... partage... résultat envoûtant



Показать сообщения:    

Текущее время: 19-Янв 22:16

Часовой пояс: UTC + 3


Вы не можете начинать темы
Вы не можете отвечать на сообщения
Вы не можете редактировать свои сообщения
Вы не можете удалять свои сообщения
Вы не можете голосовать в опросах
Вы не можете прикреплять файлы к сообщениям
Вы не можете скачивать файлы