(Classical) W.A.Mozart / J.Brahms — String Quartets № 15 & 3 (KV 421 & Op 67) (The Borodin Quartet / Квартет им. Бородина) — 1990, APE (image+.cue) lossless


 

[Цитировать]

String Quartets № 15 & 3 (KV 421 & Op 67)- Жанр: Classical
Страна-производитель диска: Россия
Год издания диска: 1990
Годы записи фонограммы: 25.10.1984 / 1983
Издатель (лейбл): Мелодия
Номер по каталогу: SUCD 10-00097
Композиторы: Wolfgang Amadeus Mozart / Johannes Brahms
Аудио кодек: ape
Тип рипа: image+.cue
Битрейт аудио: lossless
Продолжительность: 01h06'59"
Источник: собственный рип
Наличие сканов в содержимом раздачи: нет-Треклист:
Wolfgang Amadeus Mozart
String Quartet № 15 d-moll KV 421
01. I. Allegro [00h10'07"]
02. II. Andante [00h07'19"]
03. III. Menuetto [00h03'51"]
04. IV. Alegretto non troppo [00h09'31"]
Johannes Brahms
String Quartet № 3 B-Dur Op 67
05. I. Vivace [00h10'53"]
06. II. Andante [00h07'24"]
07. III. Agitato (Allegretto non troppo) [00h08'05"]
08. IV. Poco allegretto con variazioni [00h09'50"]
The Borodin Quartet / Квартет им. Бородина-

EAC log

Exact Audio Copy V0.99 prebeta 5 from 4. May 2009
[br]
Отчёт EAC об извлечении, выполненном 13. сентября 2014, 19:54
[br]
Mozart Brahms / The Borodin Quartet
[br]
Дисковод: PIONEER DVD-RW  DVR-111D   Adapter: 1  ID: 0
[br]
Режим чтения                 : Достоверность
Использование точного потока : Да
Отключение кэша аудио        : Да
Использование указателей C2  : Нет
[br]
Коррекция смещения при чтении                     : 48
Способность читать области Lead-in и Lead-out     : Нет
Заполнение пропущенных сэмплов тишиной            : Да
Удаление блоков с тишиной в начале и конце        : Нет
При вычислениях CRC использовались нулевые сэмплы : Да
Интерфейс                                         : Установленный внешний ASPI-интерфейс
[br]
Выходной формат          : Monkey's Audio (без потерь)
Выбранный битрейт        : Normal Lossless Compression
Качество                 : Высокий
Добавление ID3-тэга      : Нет
Утилита сжатия           : C:\Program Files\Monkey's Audio\MAC.exe
[br]
TOC извлечённого CD
[br]
Трек |   Старт  | Длительность | Начальный сектор | Конечный сектор
---------------------------------------------------------------------
1  |  0:00.12 |   10:07.13   |          12      |      45549
2  | 10:07.25 |    7:19.12   |       45550      |      78486
3  | 17:26.37 |    3:51.00   |       78487      |      95811
4  | 21:17.37 |    9:30.50   |       95812      |     138611
5  | 30:48.12 |   10:52.38   |      138612      |     187549
6  | 41:40.50 |    7:24.00   |      187550      |     220849
7  | 49:04.50 |    8:04.62   |      220850      |     257211
8  | 57:09.37 |    9:49.38   |      257212      |     301424
[br]
Характеристики диапазона извлечения и сообщения об ошибках
[br]
Выбранный диапазон
[br]
Имя файла D:\Музыка lossless\Mozart Brahms The Borodin Quartet\Mozart Brahms - The Borodin Quartet.wav
[br]
Пиковый уровень 99.9 %
Качество диапазона 100.0 %
CRC теста 6EEB8D5A
CRC копии 6EEB8D5A
Копирование... OK
[br]
Ошибок не произошло
[br]
AccurateRip: сводка
[br]
Трек  1  точность не определена (достоверность 3)  [52A1EF9F], AccurateRip вернул [67885E37]
Трек  2  точность не определена (достоверность 3)  [A67B1409], AccurateRip вернул [84E52A29]
Трек  3  точность не определена (достоверность 3)  [1CB055D3], AccurateRip вернул [061A0F84]
Трек  4  точность не определена (достоверность 3)  [6AA3883C], AccurateRip вернул [8D6C07D7]
Трек  5  точность не определена (достоверность 3)  [CFBBE4B8], AccurateRip вернул [4B4AFE4D]
Трек  6  точность не определена (достоверность 3)  [D8159F0E], AccurateRip вернул [4F6C3B6B]
Трек  7  точность не определена (достоверность 3)  [4578B30B], AccurateRip вернул [0E968DF5]
Трек  8  точность не определена (достоверность 3)  [8D1A2044], AccurateRip вернул [E722DFF5]
[br]
Ни один трек не прошёл проверки на точность
В вашей базе может быть иной вариант штамповки диска
[br]
Конец отчёта
-

CUE

REM GENRE Classical
REM DATE 1990
REM DISCID 680FB308
REM COMMENT "ExactAudioCopy v0.99pb5"
PERFORMER "Mozart Brahms"
TITLE "The Borodin Quartet"
FILE "Mozart Brahms - The Borodin Quartet.ape" WAVE
TRACK 01 AUDIO
TITLE "String Quartet № 15 d-moll KV 421 – I. Allegro"
PERFORMER "Mozart"
INDEX 00 00:00:00
INDEX 01 00:00:12
TRACK 02 AUDIO
TITLE "String Quartet № 15 d-moll KV 421 – II. Andante"
PERFORMER "Mozart"
INDEX 00 10:03:25
INDEX 01 10:07:25
TRACK 03 AUDIO
TITLE "String Quartet № 15 d-moll KV 421 – III. Menuetto"
PERFORMER "Mozart"
INDEX 00 17:19:62
INDEX 01 17:26:37
TRACK 04 AUDIO
TITLE "String Quartet № 15 d-moll KV 421 – IV. Alegretto non troppo"
PERFORMER "Mozart"
INDEX 00 21:13:62
INDEX 01 21:17:37
TRACK 05 AUDIO
TITLE "String Quartet № 3 B-Dur Op 67 – I. Vivace"
PERFORMER "Brahms"
INDEX 00 30:47:00
INDEX 01 30:48:12
TRACK 06 AUDIO
TITLE "String Quartet № 3 B-Dur Op 67 – II. Andante"
PERFORMER "Brahms"
INDEX 00 41:36:00
INDEX 01 41:40:50
TRACK 07 AUDIO
TITLE "String Quartet № 3 B-Dur Op 67 – III. Agitato (Allegretto non troppo)"
PERFORMER "Brahms"
INDEX 00 49:01:12
INDEX 01 49:04:50
TRACK 08 AUDIO
TITLE "String Quartet № 3 B-Dur Op 67 – IV. Poco allegretto con variazioni"
PERFORMER "Brahms"
INDEX 00 57:04:62
INDEX 01 57:09:37
-



Показать сообщения:    

Текущее время: 05-Дек 15:33

Часовой пояс: UTC + 3


Вы не можете начинать темы
Вы не можете отвечать на сообщения
Вы не можете редактировать свои сообщения
Вы не можете удалять свои сообщения
Вы не можете голосовать в опросах
Вы не можете прикреплять файлы к сообщениям
Вы не можете скачивать файлы