(Acoustic Accordions) Motion Trio - Polonium [Gorecki - Piano Concerto, Lutoslawski - Bucolics, Penderecki - Chaconne in memoriam John Paul II, Kilar - Orawa, Ptaszynska - The Last Valtz In Vienna] - 2013, FLAC (image+.cue) lossless


 

[Цитировать]

Motion Trio - Polonium
Жанр: Acoustic Accordions
Страна-производитель диска: EU
Год издания диска: 2013
Издатель (лейбл): Akordeonus/Warner Classics
Номер по каталогу: AKD 009
Аудиокодек: FLAC
Тип рипа: image+.cue
Битрейт аудио: lossless
Продолжительность: 38'34"
Источник: собственный рип
Наличие сканов в содержимом раздачи: да
Треклист:
Henryk Mikolaj Gorecki - Piano Concerto, Op.40
01. I. Allegro molto
02. II. Vivace
Janusz Wojtarowicz / Jacek Holubowski
03. Sounds Of War
Witold Lutoslawski - Bucolics
04. I. Allegro vivace
05. II. Allegretto sostenuto
06. III. Allegro molto
07. IV. Andantino
08. V. Allegro marciale
Krzysztof Penderecki
09. Chaconne in memoriam John Paul II
Wojciech Kilar
10. Orawa
Marta Ptaszynska
11. The Last Valtz In Vienna
Исполнители:
Motion Trio
Leszek Mozdzer, piano-

Лог создания рипа

Exact Audio Copy V1.0 beta 1 from 15. November 2010
EAC extraction logfile from 13. September 2014, 20:00
Motion Trio / Polonium
Used drive : Optiarc DVD RW AD-7203A Adapter: 4 ID: 1
Read mode : Secure
Utilize accurate stream : Yes
Defeat audio cache : Yes
Make use of C2 pointers : No
Read offset correction : 48
Overread into Lead-In and Lead-Out : No
Fill up missing offset samples with silence : Yes
Delete leading and trailing silent blocks : No
Null samples used in CRC calculations : Yes
Used interface : Native Win32 interface for Win NT & 2000
Used output format : User Defined Encoder
Selected bitrate : 128 kBit/s
Quality : High
Add ID3 tag : No
Command line compressor : C:\Program Files\FLAC\flac.exe
Additional command line options : -T "COMMENT=Ripped by GFox" -8 -V %s
TOC of the extracted CD
Track | Start | Length | Start sector | End sector
---------------------------------------------------------
1 | 0:00.00 | 3:16.40 | 0 | 14739
2 | 3:16.40 | 3:31.32 | 14740 | 30596
3 | 6:47.72 | 6:50.59 | 30597 | 61405
4 | 13:38.56 | 1:04.56 | 61406 | 66261
5 | 14:43.37 | 0:58.64 | 66262 | 70675
6 | 15:42.26 | 0:41.47 | 70676 | 73797
7 | 16:23.73 | 1:34.47 | 73798 | 80894
8 | 17:58.45 | 1:25.20 | 80895 | 87289
9 | 19:23.65 | 5:54.47 | 87290 | 113886
10 | 25:18.37 | 8:11.45 | 113887 | 150756
11 | 33:30.07 | 5:04.00 | 150757 | 173556
Range status and errors
Selected range
Filename D:\EAC\Motion Trio - Polonium.wav
Peak level 96.6 %
Extraction speed 0.4 X
Range quality 100.0 %
Test CRC EBB0AB9A
Copy CRC EBB0AB9A
Copy OK
No errors occurred
AccurateRip summary
Track 1 accurately ripped (confidence 2) [52FA232B]
Track 2 accurately ripped (confidence 2) [7D3DF6C9]
Track 3 accurately ripped (confidence 2) [3AEFDA48]
Track 4 accurately ripped (confidence 2) [DAC04213]
Track 5 accurately ripped (confidence 2) [5745BB42]
Track 6 accurately ripped (confidence 2) [52E44B3A]
Track 7 accurately ripped (confidence 2) [DDC0D151]
Track 8 accurately ripped (confidence 2) [8E171190]
Track 9 accurately ripped (confidence 2) [130D45F5]
Track 10 accurately ripped (confidence 2) [E896F26A]
Track 11 accurately ripped (confidence 2) [2BD230ED]
All tracks accurately ripped
End of status report
==== Log checksum 9A10493879088E5A2B73D2A7AD05DB8C16B0E5473C5F8A54B1FCAFD35C149601 ====
-Доп. информация: После весьма успешного диска музыки Майкла Наймана трио акустических аккордеонов снова вернулось к классике, обратившись к польскому авангарду.-



Показать сообщения:    

Текущее время: 07-Дек 13:37

Часовой пояс: UTC + 3


Вы не можете начинать темы
Вы не можете отвечать на сообщения
Вы не можете редактировать свои сообщения
Вы не можете удалять свои сообщения
Вы не можете голосовать в опросах
Вы не можете прикреплять файлы к сообщениям
Вы не можете скачивать файлы