Дни нашей жизни (Борис Равенских, Ольга Викландт) [1971 г., драма, исторический, фильм-спектакль, TVRip] Московский драматический театр им. А.С.Пушкина


 

[Цитировать]

Дни нашей жизни (2 серии) Название театра: Московский драматический театр им. А.С.Пушкина.
Год выпуска: 1971.
Жанр: драма, исторический, фильм-спектакль.
Продолжительность: 01:21:09 + 01:24:00 (02:45:09).
Режиссеры: народный артист СССР Борис Равенских, народная артистка РСФСР Ольга Викландт, Галина Холопова.
В ролях:
Евдокия Антоновна - народная артистка РСФСР Ольга Викландт,
Ольга Николаевна - Тамара Лякина,
Глуховцев Николай - Алексей Локтев,
Онуфрий - Роман Вильдан,
Мишка - Владимир Сафронов,
Блохин - Александр Стрельников,
Физик - Валентин Буров,
Архангельский - Юрий Румянцев,
Анна Ивановна - Вера Алентова,
Зинаида Васильевна - Нина Марушина,
Эдуард фон Ранкен - народный артист РСФСР Юрий Аверин,
Миронов Григорий - Валерий Носик,
Парень Гриша - Юрий Косых,
Торговец - Юрий Ильчук,
Аннушка - Мария Фонина,
Сторож - Владимир Торстенсен.
Описание:
По одноименной пьесе Леонида Андреева в исполнении актеров московского театра им. А.С.Пушкина.
Первоначально пьеса называлась "Любовь студента".
Москва, лето, каникулы, мечты. Главный герой восторженно влюблен в прекрасную и чистую девушку Ольгу.
Это почти с документальной точностью запечатленная юность самого автора - бедного влюбленного студента, любителя поразмышлять о вечном и гуляки, частенько заглядывающего на дно стакана. Судьба пьесы "Дни нашей жизни" сложилась необычайно счастливо. С момента своего появления в 1908 году это творение писателя имело в дореволюционной России бешеный литературный и сценический успех. В Москве даже появились конфеты "Дни нашей жизни", чему сладкоежка-автор был искренне рад. Он покупал "свои" конфеты и угощал ими всех подряд.

Дополнительная информация:
Страна: СССР .
Выпущено: Главная редакция литературно-драматических программ ЦТ.
Автор: Леонид Андреев.
Режиссеры спектакля: народный артист СССР Борис Равенских, народная артистка РСФСР Ольга Викландт.
Режиссер телеверсии: Галина Холопова.
Оператор: Виктор Куликов.
Художник: народный художник СССР Борис Волков.


Релиз
Рип..

Качество видео:...TVRip
Формат:.................AVI
Видео:..688x512 (1.34:1), 25 fps, XviD MPEG-4 ~1799 kbps avg, 0.20 bit/pixel
Аудио:..48 kHz, MPEG Layer 3, 2 ch, ~128.00 kbps avg

Отчет MI

1-я серия
Общее
Полное имя : Dni.nashej.zhizni.(2.serii.2).1971.XviD.SATRip.fenixclub\Dni.nashej.zhizni.(1-ya.seriya.2).1971.XviD.SATRip.fenixclub.avi
Формат : AVI
Формат/Информация : Audio Video Interleave
Размер файла : 1,10 Гбайт
Продолжительность : 1 ч. 21 м.
Общий поток : 1938 Кбит/сек
Режиссёр : SATrip by Animat
Программа кодирования : VirtualDubMod 1.5.10.2 (build 2540/release)
Библиотека кодирования : VirtualDubMod build 2540/release
Видео
Идентификатор : 0
Формат : MPEG-4 Visual
Профиль формата : Advanced Simple@L5
Параметр BVOP формата : 2
Параметр QPel формата : Нет
Параметр GMC формата : Без точки перехода
Параметр матрицы формата : Default (MPEG)
Режим смешивания : Сжатый битовый поток
Идентификатор кодека : XVID
Идентификатор кодека/Подсказка : XviD
Продолжительность : 1 ч. 21 м.
Битрейт : 1800 Кбит/сек
Ширина : 688 пикселей
Высота : 512 пикселей
Соотношение сторон : 4:3
Частота кадров : 25,000 кадров/сек
Цветовое пространство : YUV
Субдискретизация насыщенности : 4:2:0
Битовая глубина : 8 бит
Тип развёртки : Прогрессивная
Метод сжатия : С потерями
Бит/(Пиксели*Кадры) : 0.204
Размер потока : 1,02 Гбайт (93%)
Библиотека кодирования : XviD 1.1.2 (UTC 2006-11-01)
Аудио
Идентификатор : 1
Формат : MPEG Audio
Версия формата : Version 1
Профиль формата : Layer 3
Режим : Joint stereo
Расширение режима : MS Stereo
Идентификатор кодека : 55
Идентификатор кодека/Подсказка : MP3
Продолжительность : 1 ч. 21 м.
Вид битрейта : Постоянный
Битрейт : 128 Кбит/сек
Каналы : 2 канала
Частота : 48,0 КГц
Метод сжатия : С потерями
Размер потока : 74,3 Мбайт (7%)
Выравнивание : Соединение по промежуткам
Продолжительность промежутка : 40 мс. (1,00 видеокадр)
Время предзагрузки промежутка : 504 мс.
2-я серия
Общее
Полное имя : Dni.nashej.zhizni.(2.serii.2).1971.XviD.SATRip.fenixclub\Dni.nashej.zhizni.(2-ya.seriya.2).1971.XviD.SATRip.fenixclub.avi
Формат : AVI
Формат/Информация : Audio Video Interleave
Размер файла : 1,14 Гбайт
Продолжительность : 1 ч. 23 м.
Общий поток : 1938 Кбит/сек
Режиссёр : SATrip by Animat
Программа кодирования : VirtualDubMod 1.5.10.2 (build 2540/release)
Библиотека кодирования : VirtualDubMod build 2540/release
Видео
Идентификатор : 0
Формат : MPEG-4 Visual
Профиль формата : Advanced Simple@L5
Параметр BVOP формата : 2
Параметр QPel формата : Нет
Параметр GMC формата : Без точки перехода
Параметр матрицы формата : Default (MPEG)
Режим смешивания : Сжатый битовый поток
Идентификатор кодека : XVID
Идентификатор кодека/Подсказка : XviD
Продолжительность : 1 ч. 23 м.
Битрейт : 1800 Кбит/сек
Ширина : 688 пикселей
Высота : 512 пикселей
Соотношение сторон : 4:3
Частота кадров : 25,000 кадров/сек
Цветовое пространство : YUV
Субдискретизация насыщенности : 4:2:0
Битовая глубина : 8 бит
Тип развёртки : Прогрессивная
Метод сжатия : С потерями
Бит/(Пиксели*Кадры) : 0.204
Размер потока : 1,06 Гбайт (93%)
Библиотека кодирования : XviD 1.1.2 (UTC 2006-11-01)
Аудио
Идентификатор : 1
Формат : MPEG Audio
Версия формата : Version 1
Профиль формата : Layer 3
Режим : Joint stereo
Расширение режима : MS Stereo
Идентификатор кодека : 55
Идентификатор кодека/Подсказка : MP3
Продолжительность : 1 ч. 23 м.
Вид битрейта : Постоянный
Битрейт : 128 Кбит/сек
Каналы : 2 канала
Частота : 48,0 КГц
Метод сжатия : С потерями
Размер потока : 76,9 Мбайт (7%)
Выравнивание : Соединение по промежуткам
Продолжительность промежутка : 40 мс. (1,00 видеокадр)
Время предзагрузки промежутка : 504 мс.

Скриншоты

Альтернативный хост




Показать сообщения:    

Текущее время: 09-Дек 12:39

Часовой пояс: UTC + 3


Вы не можете начинать темы
Вы не можете отвечать на сообщения
Вы не можете редактировать свои сообщения
Вы не можете удалять свои сообщения
Вы не можете голосовать в опросах
Вы не можете прикреплять файлы к сообщениям
Вы не можете скачивать файлы