Мастера оперной сцены. Фёдор Иванович Шаляпин [1986, Документальный, опера, познавательный, культура, искусство, история, биография, SATRip]


Статистика раздачи [Обновить пиров]
Размер:  859 MB   |    Зарегистрирован:  8 месяцев 21 день   |    Скачан:  0 раз

Полного источника не было: Никогда

Личеров:  3  [  0 KB/s  ]   Подробная статистика пиров
 
   
 
 
 

[Цитировать]

Мастера оперной сцены. Фёдор Иванович Шаляпин
Дата/Год выпуска: 1986
Страна: СССР, Главная редакция музыкальных программ Центрального телевидения
Жанр: Документальный, опера, познавательный, культура, искусство, история, биография
Продолжительность: 00:57:08
Перевод: Не требуется
Русские субтитры: нет
Описание:
Сегодня, 13 февраля, отмечается 140 лет со дня рождения знаменитого оперного певца Федора Шаляпина. Федор Шаляпин родился 13 февраля 1873 года в Казани. С ранних лет он увлекался театром, а в начале 1890-х годов начал профессиональную сценическую деятельность. Шаляпин был солистом Русской Частной оперы, с 1899 года выступал на сцене Большого театра. В 1918-1921 годах Шаляпин был художественным Мариинского театра, однако позже эмигрировал за границу и остался жить в Париже. Мировую известность Шаляпину принесли оперные партии, однако публика ценила и его талантливое исполнение русских народных песен и романсов. В фильме приняли участие народный артист СССР И.И.Петров, народный артист Грузии П.Ш.Бурчуладзе, народный артист СССР А.Ф.Ведерников. В фильме использованы материалы из архива Госфильмофонда СССР. Прозвучали произведения М.Глинки, М.Мусоргского, П.Чайковского, Ф.Шуберта, Ш.Гуно, русские народные песни "Дубинушка" и "Вдоль по Питерской" в исполнении Ф.И.Шаляпина.
Сэмпл: http://multi-up.com/999179
качество: SATRip
формат: AVI
Видео: 704x528 (1.33:1), 25 fps, DivX Codec 5.05 ~1835 kbps , 0.20 bit/pixel
Аудио: 48 kHz, MPEG Layer 3, 2 ch, ~256.00 kbps avg

MediaInfo

Общее
Полное имя : E:\Download\Mastera.opery.Shaljapin.SATRip.by.maslovagal.Muvitroll.avi
Формат : AVI
Формат/Информация : Audio Video Interleave
Размер файла : 859 Мбайт
Продолжительность : 57 м.
Общий поток : 2102 Кбит/сек
Программа кодирования : VirtualDubMod 1.5.10.2 (build 2540/release)
Библиотека кодирования : VirtualDubMod build 2540/release
Видео
Идентификатор : 0
Формат : MPEG-4 Visual
Параметр BVOP формата : Нет
Параметр QPel формата : Нет
Параметр GMC формата : Без точки перехода
Параметр матрицы формата : Default (H.263)
Идентификатор кодека : DX50
Идентификатор кодека/Подсказка : DivX 5
Продолжительность : 57 м.
Битрейт : 1836 Кбит/сек
Ширина : 704 пикселя
Высота : 528 пикселей
Соотношение сторон : 4:3
Частота кадров : 25,000 кадров/сек
Цветовое пространство : YUV
Субдискретизация насыщенности : 4:2:0
Битовая глубина : 8 бит
Тип развёртки : Прогрессивная
Метод сжатия : С потерями
Бит/(Пиксели*Кадры) : 0.198
Размер потока : 750 Мбайт (87%)
Библиотека кодирования : DivX 5.0.5 (UTC 2003-04-24)
Аудио
Идентификатор : 1
Формат : MPEG Audio
Версия формата : Version 1
Профиль формата : Layer 3
Режим : Joint stereo
Идентификатор кодека : 55
Идентификатор кодека/Подсказка : MP3
Продолжительность : 57 м.
Вид битрейта : Постоянный
Битрейт : 256 Кбит/сек
Каналы : 2 канала
Частота : 48,0 КГц
Метод сжатия : С потерями
Задержка видео : 16 мс.
Размер потока : 105 Мбайт (12%)
Выравнивание : Разделение по промежуткам
Продолжительность промежутка : 40 мс. (1,00 видеокадр)
Время предзагрузки промежутка : 500 мс.

Скриншоты

[teatrix.ru].t19101.torrent 
Торрент: Зарегистрирован [ 2016-03-18 12:56 ] · E832C092CD15AC32D1B5AB3C36114FC13A1E4B2D

Скачать .torrent

Скачать

17 KB

Статус: проверено
Скачан: 0 раз
Размер: 859 MB
terms.php



Быстрый ответ

Имя:

      
Для отправки сообщений необходимо включить JavaScript
Показать сообщения:    

Текущее время: 08-Дек 21:14

Часовой пояс: UTC + 3


Вы можете начинать темы
Вы можете отвечать на сообщения
Вы не можете редактировать свои сообщения
Вы не можете удалять свои сообщения
Вы не можете голосовать в опросах
Вы не можете прикреплять файлы к сообщениям
Вы можете скачивать файлы