Волк и Заяц - 25 лет вместе. Юбилейный вечер "Ну, Погоди" 1.04.1993 [1.04.1993, Фильм-концерт, VHSRip]


Статистика раздачи [Обновить пиров]
Размер:  3.11 GB   |    Зарегистрирован:  10 месяцев 1 день   |    Скачан:  0 раз

Полного источника не было: Никогда

Личеров:  3  [  0 KB/s  ]   Подробная статистика пиров
 
   
 
 
 

[Цитировать]

Волк и Заяц - 25 лет вместе. Юбилейный вечер "Ну, Погоди" 1.04.1993
Дата/Год выпуска: 1.04.1993
Страна: Россия
Жанр: Фильм-концерт
Продолжительность: 01:09:59
Перевод: Не требуется
Телеканал: Первый канал Останкино
Описание: Оцифровка фильма-концерта с видеокассеты. В начале качество не очень высокое из-за слабого сигнала эфира, но примерно на 14й минуте всё плавно приходит в норму.
P.S. Прошу прощения за рассинхрон.
качество: VHSRip
формат: MPG
Видео: MPEG2, 720*576, 4:3, 6008 kbps, 25fps,
Аудио: MPEG Audio, 224kbps, 48kHz, 2ch

отчёт MediaInfo

Общее
Полное имя : D:\Волк и Заяц - 25 лет. Юбилейный вечер Ну погоди 1993.mpg
Формат : MPEG-PS
Размер файла : 3,11 Гбайт
Продолжительность : 1 ч. 9 м.
Режим общего битрейта : Переменный
Общий поток : 6359 Кбит/сек
Видео
Идентификатор : 224 (0xE0)
Формат : MPEG Video
Версия формата : Version 2
Профиль формата : Main@Main
Параметр BVOP формата : Да
Параметр матрицы формата : По умолчанию
Параметр GOP формата : M=3, N=12
Продолжительность : 1 ч. 9 м.
Вид битрейта : Переменный
Битрейт : 6008 Кбит/сек
Максимальный битрейт : 8000 Кбит/сек
Ширина : 720 пикселей
Высота : 576 пикселей
Соотношение сторон : 4:3
Частота кадров : 25,000 кадров/сек
Стандарт вещания : PAL
Цветовое пространство : YUV
Субдискретизация насыщенности : 4:2:0
Битовая глубина : 8 бит
Тип развёртки : Чересстрочная
Порядок развёртки : Нижнее поле первое
Метод сжатия : С потерями
Бит/(Пиксели*Кадры) : 0.580
Временной код первого кадра : 00:00:00:00
Оригинал временного кода : Group of pictures header
Размер потока : 2,94 Гбайт (94%)
Аудио
Идентификатор : 192 (0xC0)
Формат : MPEG Audio
Версия формата : Version 1
Профиль формата : Layer 2
Продолжительность : 1 ч. 9 м.
Вид битрейта : Постоянный
Битрейт : 224 Кбит/сек
Каналы : 2 канала
Частота : 48,0 КГц
Метод сжатия : С потерями
Размер потока : 112 Мбайт (4%)
Меню

Скриншоты

Приятного просмотра! Пожалуйста, не уходите с раздачи, скачав запись!
[teatrix.ru].t19103.torrent 
Торрент: Зарегистрирован [ 2016-03-18 12:58 ] · 0788B1B3550140203103F12407023FA5153C63BA

Скачать .torrent

Скачать

16 KB

Статус: проверено
Скачан: 0 раз
Размер: 3.11 GB
terms.php



Быстрый ответ

Имя:

      
Для отправки сообщений необходимо включить JavaScript
Показать сообщения:    

Текущее время: 19-Янв 22:17

Часовой пояс: UTC + 3


Вы можете начинать темы
Вы можете отвечать на сообщения
Вы не можете редактировать свои сообщения
Вы не можете удалять свои сообщения
Вы не можете голосовать в опросах
Вы не можете прикреплять файлы к сообщениям
Вы можете скачивать файлы