(Chamber) Gabriel Faure - Piano Quintets [Quintet № 1 in D minor, Op.89 & № 2 in C minor, Op.115] (Domus Ensemble, Anthony Marwood) - 1995, FLAC (image+.cue) lossless


 

[Цитировать]

Gabriel Fauré - Piano QuintetsDomus Ensemble | Anthony Marwood Жанр: Chamber
Страна-производитель диска: UK
Год издания диска: 1995
Издатель (лейбл): Hyperion
Номер по каталогу: CDA 66766
Дата записи: 1994
Аудиокодек: FLAC
Тип рипа: image+.cue
Битрейт аудио: lossless
Продолжительность: 1:00:44
Источник: скачано с odeonmusic
Треклист:
Piano Quintet No. 1 in D minor, Op. 89
1 Molto moderato 10:31
2 Adagio 11:00
3 Allegretto moderato 7:33
Piano Quintet No. 2 in C minor, Op. 115
4 Allegro moderato 10:10
5 Allegro vivo 4:10
6 Andante moderato 11:04
7 Allegro molto 6:13
Исполнители:
Domus Ensemble:
Susan Tomes - piano
Krysia Osostowicz - violin
Timothy Boulton - viola
Richard Lester - cello
& Anthony Marwood - violin

Лог создания рипа

Exact Audio Copy V1.0 beta 3 from 29. August 2011
EAC extraction logfile from 17. May 2013, 17:59
Domus / Fauré - Piano Quintets - Domus
Used drive : TSSTcorpCDDVDW SH-222BB Adapter: 2 ID: 1
Read mode : Secure
Utilize accurate stream : Yes
Defeat audio cache : Yes
Make use of C2 pointers : No
Read offset correction : 6
Overread into Lead-In and Lead-Out : No
Fill up missing offset samples with silence : Yes
Delete leading and trailing silent blocks : No
Null samples used in CRC calculations : Yes
Used interface : Native Win32 interface for Win NT & 2000
Used output format : User Defined Encoder
Selected bitrate : 1024 kBit/s
Quality : High
Add ID3 tag : No
Command line compressor : C:\Program Files\Exact Audio Copy\Flac\flac.exe
Additional command line options : -8 -V -T "TITLE=%title%" -T "ARTIST=%artist%" -T "ALBUMARTIST=%albumartist%" -T "ALBUM=%albumtitle%" -T "DATE=%year%" -T "TRACKNUMBER=%tracknr%" -T "TRACKTOTAL=%numtracks%" -T "GENRE=%genre%" -T "COMMENT=%comment%" -T "PERFORMER=%albuminterpret%" -T "COMPOSER=%composer%" %source% -o %dest%
TOC of the extracted CD
Track | Start | Length | Start sector | End sector
---------------------------------------------------------
1 | 0:00.00 | 10:31.63 | 0 | 47387
2 | 10:31.63 | 11:00.20 | 47388 | 96907
3 | 21:32.08 | 7:33.05 | 96908 | 130887
4 | 29:05.13 | 10:10.17 | 130888 | 176654
5 | 39:15.30 | 4:10.55 | 176655 | 195459
6 | 43:26.10 | 11:04.30 | 195460 | 245289
7 | 54:30.40 | 6:13.68 | 245290 | 273332
Range status and errors
Selected range
Filename G:\Ripped general\[2096] Fauré – Piano Quintets – Domus\Fauré - Piano Quintets - Domus.wav
Peak level 82.8 %
Extraction speed 7.9 X
Range quality 100.0 %
Test CRC 2746E826
Copy CRC 2746E826
Copy OK
No errors occurred
AccurateRip summary
Track 1 accurately ripped (confidence 4) [13BBFA72] (AR v2)
Track 2 accurately ripped (confidence 4) [08411929] (AR v2)
Track 3 accurately ripped (confidence 4) [89D2B78B] (AR v2)
Track 4 accurately ripped (confidence 4) [FB111E4A] (AR v2)
Track 5 accurately ripped (confidence 4) [8D1A73F5] (AR v2)
Track 6 accurately ripped (confidence 4) [1302C063] (AR v2)
Track 7 accurately ripped (confidence 4) [DA611D51] (AR v2)
All tracks accurately ripped
End of status report

Лог проверки качества

AUDIOCHECKER v2.0 beta (build 457) - by Dester - opdester@freemail.hu
~~~~~~~~~~~~~~~~~~~~~~~~~~~~~~~~~~
-=== DO NOT EDIT THIS FILE! ===-
Path: ...\Faure - Piano Quintets (Domus)
1 -=- Faure - Piano Quintets - Domus.flac -=- MPEG (89%)
46118484

Скриншот спектра частот




Показать сообщения:    

Текущее время: 08-Дек 12:49

Часовой пояс: UTC + 3


Вы не можете начинать темы
Вы не можете отвечать на сообщения
Вы не можете редактировать свои сообщения
Вы не можете удалять свои сообщения
Вы не можете голосовать в опросах
Вы не можете прикреплять файлы к сообщениям
Вы не можете скачивать файлы