(Classical) Erik Satie - Gymnopedies № 1-9 (Антон Шпарварт, Светлана Солдатова) - 2014, WavPack (iso.wv) lossless


 

[Цитировать]

Erik Satie- Gymnopedies № 1-9 (Антон Шпарварт, Светлана Солдатова)Erik Satie (1866-1925) Жанр: Classical
Страна-производитель диска: Россия
Год издания диска: 04/2014
Издатель (лейбл): Stereo&Video
Номер по каталогу: SVCD-183
Дата записи: 2014
Аудиокодек: WavPack
Тип рипа: iso.wv
Битрейт аудио: lossless
Продолжительность: 0:19:38
Источник: NetLab, shatterhand
Наличие сканов в содержимом раздачи: да
Треклист:
Музыка Эрика Сати в переложении для корнета и фортепиано
01. Gimnopedia №1 (2:17)
02. Gimnopedia №2 (1:53)
03. Gimnopedia №3 (1:46)
04. Gimnopedia №4 (3:13)
05. Gimnopedia №5 (2:04)
06. Gimnopedia №6 (2:04)
07. Gimnopedia №7 (1:45)
08. Gimnopedia №8 (2:55)
09. Gimnopedia №9 (1:42)
Исполнители:
Антон Шпарварт корнет-а-пистон
Светлана Солдатова фортепиано

Перечень файлов (содержимое) контейнера в текстовом виде.

1. Содержимое CUE-файла.
2. Отчёт ЕАС.
3. Аудиофайл (.wv)
4. Сканы: буклет, диск, (полные) JPG;
5. тех. данные
6. Сканы front, CD, Back формат jpeg

Лог создания рипа

Exact Audio Copy V1.0 beta 3 from 29. August 2011
EAC extraction logfile from 1. July 2014, 4:38
Антон Шпарварт и Светлана Солдатова / Музыка Эрика Сати в переложении для корнета и фортепиано
Used drive : TSSTcorpCDDVDW SH-224DB Adapter: 3 ID: 0
Read mode : Secure
Utilize accurate stream : Yes
Defeat audio cache : Yes
Make use of C2 pointers : No
Read offset correction : 6
Overread into Lead-In and Lead-Out : No
Fill up missing offset samples with silence : Yes
Delete leading and trailing silent blocks : No
Null samples used in CRC calculations : Yes
Used interface : Native Win32 interface for Win NT & 2000
Used output format : Internal WAV Routines
Sample format : 44.100 Hz; 16 Bit; Stereo
TOC of the extracted CD
Track | Start | Length | Start sector | End sector
---------------------------------------------------------
1 | 0:00.00 | 2:17.24 | 0 | 10298
2 | 2:17.24 | 1:52.70 | 10299 | 18768
3 | 4:10.19 | 1:45.44 | 18769 | 26687
4 | 5:55.63 | 3:13.08 | 26688 | 41170
5 | 9:08.71 | 2:03.56 | 41171 | 50451
6 | 11:12.52 | 2:04.06 | 50452 | 59757
7 | 13:16.58 | 1:45.12 | 59758 | 67644
8 | 15:01.70 | 2:55.11 | 67645 | 80780
9 | 17:57.06 | 1:41.44 | 80781 | 88399
Range status and errors
Selected range
Filename G:\Temp\Антон Шпарварт и Светлана Солдатова - Музыка Эрика Сати в переложении для корнета и фортепиано\Антон Шпарварт и Светлана Солдатова - Музыка Эрика Сати в переложении для корнета и фортепиано.wav
Peak level 89.1 %
Extraction speed 2.4 X
Range quality 100.0 %
Test CRC AECA9C6D
Copy CRC AECA9C6D
Copy OK
No errors occurred
End of status report
==== Log checksum 2ED2D5AEEF48F6B2814EAA00F8CB6C9D0061F0F9FFC25634AE8D2174CEFD71D5 ====

Содержание индексной карты (.CUE)

REM GENRE "Classical"
REM DATE 2014
REM DISCID 77049A09
REM COMMENT "ExactAudioCopy v1.0b3"
PERFORMER "Антон Шпарварт и Светлана Солдатова "
TITLE "Музыка Эрика Сати в переложении для корнета и фортепиано"
FILE "Anton SHparvart i Svetlana Soldatova - 2014 - Muzyka Erika Sati v perelojenii dlya korneta i fortepiano (Stereo&Video SVCD-183) [NL+].wv" WAVE
TRACK 01 AUDIO
TITLE "Gimnopedia №1"
PERFORMER "Антон Шпарварт и Светлана Солдатова "
INDEX 01 00:00:00
TRACK 02 AUDIO
TITLE "Gimnopedia №2"
PERFORMER "Антон Шпарварт и Светлана Солдатова "
INDEX 01 02:17:24
TRACK 03 AUDIO
TITLE "Gimnopedia №3"
PERFORMER "Антон Шпарварт и Светлана Солдатова "
INDEX 01 04:10:19
TRACK 04 AUDIO
TITLE "Gimnopedia №4"
PERFORMER "Антон Шпарварт и Светлана Солдатова "
INDEX 01 05:55:63
TRACK 05 AUDIO
TITLE "Gimnopedia №5"
PERFORMER "Антон Шпарварт и Светлана Солдатова "
INDEX 01 09:08:71
TRACK 06 AUDIO
TITLE "Gimnopedia №6"
PERFORMER "Антон Шпарварт и Светлана Солдатова "
INDEX 01 11:12:52
TRACK 07 AUDIO
TITLE "Gimnopedia №7"
PERFORMER "Антон Шпарварт и Светлана Солдатова "
INDEX 01 13:16:58
TRACK 08 AUDIO
TITLE "Gimnopedia №8"
PERFORMER "Антон Шпарварт и Светлана Солдатова "
INDEX 01 15:01:70
TRACK 09 AUDIO
TITLE "Gimnopedia №9"
PERFORMER "Антон Шпарварт и Светлана Солдатова "
INDEX 01 17:57:06

Лог проверки качества


 

Скриншот спектра частот




Показать сообщения:    

Текущее время: 06-Дек 22:53

Часовой пояс: UTC + 3


Вы не можете начинать темы
Вы не можете отвечать на сообщения
Вы не можете редактировать свои сообщения
Вы не можете удалять свои сообщения
Вы не можете голосовать в опросах
Вы не можете прикреплять файлы к сообщениям
Вы не можете скачивать файлы