Жан-Поль Бельмондо и Джин Сиберг: Счастливый побег / Jean-Paul Belmondo tourne avec Jean Seberg Echappement libre (Жан Бекер / Jean Becker) [1964, 1968, документальный, кинематограф, SATRip-AVC] Original (Fre) + Sub Rus (Lisok)


Статистика раздачи [Обновить пиров]
Размер:  64 MB   |    Зарегистрирован:  8 месяцев 15 дней   |    Скачан:  0 раз

Полного источника не было: Никогда

Личеров:  3  [  0 KB/s  ]   Подробная статистика пиров
 
   
 
 
 

[Цитировать]

Жан-Поль Бельмондо и Джин Сиберг: "Счастливый побег"
Jean-Paul Belmondo tourne avec Jean Seberg "Échappement libre"- Дата/Год выпуска: 1964, 1968
Страна: Франция
Жанр: документальный, кинематограф
Продолжительность: 00:05:35
Перевод: Субтитры
Русские субтитры: есть
Формат субтитров: softsub (SRT)
Доп. информация о субтитрах: перевод Lisok , инициатор Aleks Punk
Оригинальная аудиодорожка: французский
Режиссер: Жан Бекер / Jean Becker
Телеканал: inaОписание: Национальный институт аудиовизуальных средств Франции (Institut national de l'audiovisuel) представляет два репортажа из своих архивов:
1. Репортаж со студии Capotole Films в Бийанкуре, где начались съемки фильма режиссера Жана Бекера "Счастливый побег" (1964). Жан Бекер рассказывает историю будущей картины, для работы в которой он пригласил актерский дуэт фильма "На последнем дыхании" (1959). Исполнители главных ролей Жан-Поль Бельмондо и Джин Сиберг рассказывают о своей совместной работе.
2. Интервью с Жаном-Полем Бельмондо, состоявшееся 18 февраля 1968 года на студии Cocinor после съемок эпизода нового фильма режиссера Робера Энрико "Зовите меня О!" (1968).
Доп. информация: За предоставленный материал благодарность Aleks Punk

качество: SATRip
формат: MKV
Видео: AVC (H.264), 640x480 (4:3), 25 fps, ~1500 kbps avg, 0.195 bit/pixel
Аудио: AC3, 2 ch, 44,1 kHz, ~128.00 kbps avg

Пример субтитров

1
00:00:02,371 --> 00:00:05,714
На студиях в Бийанкуре перед натурными
съёмками в Испании и Италии,
2
00:00:05,710 --> 00:00:08,685
Джин Сиберг и Жан-Поль Бельмондо
снимали первые сцены
3
00:00:08,685 --> 00:00:10,680
"Счастливого побега".
4
00:00:11,142 --> 00:00:14,228
Ваши глаза любви
меня смертельно ранят...
5
00:00:14,220 --> 00:00:17,914
- И чем вы теперь займётесь?
- Любовью!
6
00:00:19,285 --> 00:00:21,857
- У тебя опять впереди плечо.
- Его?
7
00:00:21,850 --> 00:00:25,400
- Но он же лицом...
- Я могу лечь вот так.
8
00:00:25,400 --> 00:00:28,285
- А она?
- Прямо на спину?
9
00:00:28,280 --> 00:00:31,228
Развернись под конец.
- А, да-да.
10
00:00:31,220 --> 00:00:34,085
- И чем вы теперь займётесь?
- Любовью!
11
00:00:34,971 --> 00:00:37,342
В этой юмористической
и детективной истории,
12
00:00:37,340 --> 00:00:40,742
молодой режиссёр Жан Бекер
в первый раз вновь соединил
13
00:00:40,740 --> 00:00:43,342
знаменитую пару из фильма
"На последнем дыхании".
14
00:00:43,340 --> 00:00:46,400
Возьмёшь, да вот так.
15
00:00:47,142 --> 00:00:50,971
"Счастливый побег" - это фильм-погоня,
судя по названию.
16
00:00:50,970 --> 00:00:55,085
Да, это фильм-погоня.
Он о двух...
17
00:00:55,571 --> 00:00:59,800
о двух молодых людях -
репортёре и фотографе -
18
00:00:59,800 --> 00:01:01,942
которые встречаются
19
00:01:01,940 --> 00:01:04,914
через организацию, занимающуюся
незаконной торговлей золотом.
20
00:01:04,910 --> 00:01:09,971
Им доверяют машину.
Машина замаскирована.

MediaInfo

Общее
Уникальный идентификатор : 183459585705971356173032883425171387983 (0x8A0507ED9FAE110AB34AFE95946AB64F)
Полное имя : E:\My Torrents 2\[apreder]Jean-Paul_Belmondo_Echappement_libre(1964_1968)SATRip.mkv
Формат : Matroska
Версия формата : Version 2
Размер файла : 64,1 Мбайт
Продолжительность : 5 м. 35 с.
Общий поток : 1602 Кбит/сек
Дата кодирования : UTC 2014-09-19 13:11:48
Программа кодирования : mkvmerge v7.2.0 ('On Every Street') 64bit built on Sep 13 2014 15:52:10
Библиотека кодирования : libebml v1.3.0 + libmatroska v1.4.1
Видео
Идентификатор : 1
Формат : AVC
Формат/Информация : Advanced Video Codec
Профиль формата : High@L4.1
Параметр CABAC формата : Да
Параметр ReFrames формата : 16 кадров
Идентификатор кодека : V_MPEG4/ISO/AVC
Продолжительность : 5 м. 35 с.
Битрейт : 1500 Кбит/сек
Ширина : 640 пикселей
Высота : 480 пикселей
Соотношение сторон : 4:3
Режим частоты кадров : Постоянный
Частота кадров : 25,000 кадров/сек
Цветовое пространство : YUV
Субдискретизация насыщенности : 4:2:0
Битовая глубина : 8 бит
Тип развёртки : Прогрессивная
Бит/(Пиксели*Кадры) : 0.195
Размер потока : 57,7 Мбайт (90%)
Библиотека кодирования : x264 core 142 r2431 ac76440
Настройки программы : cabac=1 / ref=16 / deblock=1:-1:-1 / analyse=0x3:0x133 / me=umh / subme=10 / psy=1 / psy_rd=1.00:0.15 / mixed_ref=1 / me_range=24 / chroma_me=1 / trellis=2 / 8x8dct=1 / cqm=0 / deadzone=21,11 / fast_pskip=1 / chroma_qp_offset=-3 / threads=6 / lookahead_threads=1 / sliced_threads=0 / nr=0 / decimate=1 / interlaced=0 / bluray_compat=0 / constrained_intra=0 / bframes=8 / b_pyramid=2 / b_adapt=2 / b_bias=0 / direct=3 / weightb=0 / open_gop=0 / weightp=2 / keyint=250 / keyint_min=25 / scenecut=40 / intra_refresh=0 / rc_lookahead=60 / rc=2pass / mbtree=1 / bitrate=1500 / ratetol=1.0 / qcomp=0.60 / qpmin=0 / qpmax=69 / qpstep=4 / cplxblur=20.0 / qblur=0.5 / vbv_maxrate=62500 / vbv_bufsize=78125 / nal_hrd=none / filler=0 / ip_ratio=1.40 / aq=1:1.00
Default : Да
Forced : Нет
Аудио
Идентификатор : 2
Формат : AC-3
Формат/Информация : Audio Coding 3
Расширение режима : CM (complete main)
Параметр Endianness формата : Big
Идентификатор кодека : A_AC3
Продолжительность : 5 м. 35 с.
Вид битрейта : Постоянный
Битрейт : 128 Кбит/сек
Каналы : 2 канала
Расположение каналов : Front: L R
Частота : 44,1 КГц
Битовая глубина : 16 бит
Метод сжатия : С потерями
Размер потока : 5,12 Мбайт (8%)
Язык : French
Default : Да
Forced : Нет
Текст
Идентификатор : 3
Формат : UTF-8
Идентификатор кодека : S_TEXT/UTF8
Идентификатор кодека/Информация : UTF-8 Plain Text
Язык : Russian
Default : Да
Forced : Нет

Скриншоты

Резервные скриншоты

-[1'732]
[teatrix.ru].t19112.torrent 
Торрент: Зарегистрирован [ 2016-03-18 12:57 ] · BA2602B35AA3ED785C9CBE1B248E0BB891970ECB

Скачать .torrent

Скачать

10 KB

Статус: проверено
Скачан: 0 раз
Размер: 64 MB
terms.php



Показать сообщения:    

Текущее время: 03-Дек 07:38

Часовой пояс: UTC + 3


Вы не можете начинать темы
Вы не можете отвечать на сообщения
Вы не можете редактировать свои сообщения
Вы не можете удалять свои сообщения
Вы не можете голосовать в опросах
Вы не можете прикреплять файлы к сообщениям
Вы можете скачивать файлы