Юри / Yuri (Сесиль Брун, Иммануил Вагнер, Катя Шиндорфер, Нильс Хедингер / Cecile Brun, Immanuel Wagner, Katja Schiendorfer, Nils Hedinger) [2009, Швейцария, авторская анимация, WEBRip-AVC]


 

[Цитировать]

Юри / Yuri
Страна: Швейцария
Жанр: авторская анимация
Год выпуска: 2009
Продолжительность: 00:05:31
Перевод: не требуется
Cубтитры: нет
Режиссёры: Сесиль Брун, Иммануил Вагнер, Катя Шиндорфер, Нильс Хедингер / Cecile Brun, Immanuel Wagner, Katja Schiendorfer, Nils Hedinger
Описание: В результате технического сбоя астронавт Юри по окончании своей миссии вместо Земли оказывается где-то в пустынном космосе. Непонятное существо инопланетного происхождения становится для него единственной родственной душой.
Качество видео: WEBRip-AVC
Формат видео: MP4
Видео: 2490 kbps, 1280х720 (16:9), 25.000 fps, AVC (High@L3.1)
Аудио: 157 kbps, 44.1 kHz, 2 channels, AAC (LC)

MediaInfo

General
Complete name : Yuri (2009).mp4
Format : MPEG-4
Format profile : Base Media
Codec ID : isom
File size : 105 MiB
Duration : 5mn 31s
Overall bit rate mode : Variable
Overall bit rate : 2 650 Kbps
Encoded date : UTC 2011-06-13 13:18:23
Tagged date : UTC 2011-06-14 13:18:25
Video
ID : 1
Format : AVC
Format/Info : Advanced Video Codec
Format profile : High@L3.1
Format settings, CABAC : Yes
Format settings, ReFrames : 4 frames
Codec ID : avc1
Codec ID/Info : Advanced Video Coding
Duration : 5mn 31s
Bit rate : 2 490 Kbps
Maximum bit rate : 7 949 Kbps
Width : 1 280 pixels
Height : 720 pixels
Display aspect ratio : 16:9
Frame rate mode : Constant
Frame rate : 25.000 fps
Color space : YUV
Chroma subsampling : 4:2:0
Bit depth : 8 bits
Scan type : Progressive
Bits/(Pixel*Frame) : 0.108
Stream size : 98.3 MiB (94%)
Writing library : Vimeo Encoder
Encoded date : UTC 2011-06-13 13:18:23
Tagged date : UTC 2011-06-13 13:18:24
Audio
ID : 2
Format : AAC
Format/Info : Advanced Audio Codec
Format profile : LC
Codec ID : 40
Duration : 5mn 31s
Bit rate mode : Variable
Bit rate : 157 Kbps
Maximum bit rate : 188 Kbps
Channel(s) : 2 channels
Channel positions : Front: L R
Sampling rate : 44.1 KHz
Compression mode : Lossy
Stream size : 6.21 MiB (6%)
Encoded date : UTC 2011-06-13 13:18:24
Tagged date : UTC 2011-06-13 13:18:24

Скриншот c названием фильма

Скриншоты




Показать сообщения:    

Текущее время: 09-Дек 10:50

Часовой пояс: UTC + 3


Вы не можете начинать темы
Вы не можете отвечать на сообщения
Вы не можете редактировать свои сообщения
Вы не можете удалять свои сообщения
Вы не можете голосовать в опросах
Вы не можете прикреплять файлы к сообщениям
Вы не можете скачивать файлы