(Classical) Гец – Фортепианное трио; Киль – Фортепианное трио № 5 / Goetz & Kiel – Piano trios (Abegg Trio: Ulrich Beetz, Birgit Erichson, Gerrit Zitterbart) - 1989, FLAC (image+.cue) lossless


 

[Цитировать]

Гец – Фортепианное трио; Киль – Фортепианное трио № 5 / Goetz & Kiel – Piano trios (Abegg Trio: Ulrich Beetz, Birgit Erichson, Gerrit Zitterbart)
Жанр: Classical
Страна-производитель диска: Германия
Год издания диска: 1989
Издатель (лейбл): Intercord
Номер по каталогу: INT 860.867
Дата записи: июнь 1986 г., Блуменштейн (кантон Берн).
Аудиокодек: FLAC
Тип рипа: image+.cue
Битрейт аудио: lossless
Продолжительность: 00:55:33
Источник: odeonmusic
Наличие сканов в содержимом раздачи: да
Треклист:
Герман Густав Гец (1840 — 1876).
Фортепианное трио g-moll, op. 1 (1863).
01. I. Langsam. — Feurig [10:04].
02. II. Sehr ruhig [06:04].
03. III. Scherzo. Flüchtig, erregt. — Etwas langsamer. — Tempo I. — Coda [03:46].
04. IV. Finale. Mässig rasch. — Ziemlich lebhaft. — [Coda.] Sehr feurig [11:35].
Фридрих Киль (1821 — 1885).
Фортепианное трио № 5 G-dur, op. 34 (1864).
05. I. Allegro moderato [09:33].
06. II. Andante quasi Allegretto grazioso. — Un poco più moto. — Tempo I [07:02].
07. III. Allegro vivace e scherzando [07:00].
Исполнители:
Abegg Trio:
Ulrich Beetz (скрипка),
Birgit Erichson (виолончель),
Gerrit Zitterbart (фортепиано).

Содержание индексной карты (.CUE)

REM GENRE Classical
REM DISCID 5C0D0407
REM COMMENT "ExactAudioCopy v1.0b3"
PERFORMER "Abegg Trio"
TITLE "Goetz & Kiel – Piano Trios – Abegg Trio"
FILE "Goetz & Kiel – Piano Trios – Abegg Trio.flac" WAVE
TRACK 01 AUDIO
TITLE "Goetz - Piano Trio in G minor, Op. 1 - I. Langsam - Feurig"
PERFORMER "Abegg Trio"
INDEX 00 00:00:00
INDEX 01 00:00:33
TRACK 02 AUDIO
TITLE "Goetz - Piano Trio in G minor, Op. 1 - II. Sehr ruhig"
PERFORMER "Abegg Trio"
INDEX 00 10:05:08
INDEX 01 10:09:20
TRACK 03 AUDIO
TITLE "Goetz - Piano Trio in G minor, Op. 1 - III. Scherzo. Fluechtig, erregt"
PERFORMER "Abegg Trio"
INDEX 00 16:15:33
INDEX 01 16:18:08
TRACK 04 AUDIO
TITLE "Goetz - Piano Trio in G minor, Op. 1 - IV. Finale. Maessig rasch - Ziemlich lebhaft"
PERFORMER "Abegg Trio"
INDEX 00 20:04:08
INDEX 01 20:06:23
TRACK 05 AUDIO
TITLE "Kiel - Piano Trio No. 5 in G major, Op. 34 - I. Allegro moderato"
PERFORMER "Abegg Trio"
INDEX 00 31:41:73
INDEX 01 31:52:33
TRACK 06 AUDIO
TITLE "Kiel - Piano Trio No. 5 in G major, Op. 34 - II. Andante quasi allegretto grazioso"
PERFORMER "Abegg Trio"
INDEX 00 41:26:33
INDEX 01 41:27:30
TRACK 07 AUDIO
TITLE "Kiel - Piano Trio No. 5 in G major, Op. 34 - III. Allegro vivace e scherzando"
PERFORMER "Abegg Trio"
INDEX 00 48:30:08
INDEX 01 48:32:10

Лог проверки качества

AUDIOCHECKER v2.0 beta (build 457) - by Dester - opdester@freemail.hu
~~~~~~~~~~~~~~~~~~~~~~~~~~~~~~~~~~
-=== DO NOT EDIT THIS FILE! ===-
Path: ...\Goetz & Kiel – Piano Trios (Abegg Trio)
1 -=- Goetz & Kiel – Piano Trios – Abegg Trio.flac -=- CDDA (100%)
221414516



Показать сообщения:    

Текущее время: 09-Дек 12:47

Часовой пояс: UTC + 3


Вы не можете начинать темы
Вы не можете отвечать на сообщения
Вы не можете редактировать свои сообщения
Вы не можете удалять свои сообщения
Вы не можете голосовать в опросах
Вы не можете прикреплять файлы к сообщениям
Вы не можете скачивать файлы