(Classical/Vocal/Instrumental) Reznicek - Schlemihl, A Symphonic Life Story * Raskolnikoff, Phantasy Overture (Yamamasu - WDR Sinfonieorchester Koln, Jurowski/Михаил Юровский) - 2004, APE (image+.cue) lossless


 

[Цитировать]

Emil Nikolaus von Reznicek (1860-1945) - Schlemihl, A Symphonic Life Story * Raskolnikoff, Phantasy Overture
Жанр: Classical/Vocal/Instrumental
Страна-производитель диска: Germany
Год издания диска: 2004
Издатель (лейбл): CPO
Номер по каталогу: 999 795-2
Дата записи: 2001
Аудиокодек: APE
Тип рипа: image+.cue
Битрейт аудио: lossless
Продолжительность: 66'34
Источник: собственный рип
Наличие сканов в содержимом раздачи: да
Треклист/Исполнители:
Schlemihl, A Symphonic Life Story for Orchestra & Tenor solo
1. Der Mann (Belebt, mit stolzem Schwung)
2. Orgie (Scherzo)
3. Die Frau (Adagio)
4. Belebt, mit stolzem Schwung
5. Sehr breit und feierlich
Raskolnikoff
6. Phantasy Overture
Nabuaki Yamamasu, tenor
WDR Sinfonieorchester Köln
Michail Jurowski

Лог создания рипа

Exact Audio Copy V1.0 beta 3 from 29. August 2011
EAC extraction logfile from 15. March 2014, 18:46
Reznicek / Schlemihl & Raskolnikof, Jurowski 2001
Used drive : TS8XDVDSTRANSCEND Adapter: 1 ID: 1
Read mode : Secure
Utilize accurate stream : Yes
Defeat audio cache : Yes
Make use of C2 pointers : No
Read offset correction : 6
Overread into Lead-In and Lead-Out : No
Fill up missing offset samples with silence : Yes
Delete leading and trailing silent blocks : No
Null samples used in CRC calculations : Yes
Used interface : Native Win32 interface for Win NT & 2000
Used output format : Monkey's Audio Lossless Encoder
Selected bitrate : High Lossless Compression
Quality : High
Add ID3 tag : Yes
Command line compressor : C:\Program Files (x86)\Monkey's Audio\MAC.exe
Additional command line options : %dest% -t "Artist=%artist%" -t "Title=%title%" -t "Album=%albumtitle%" -t "Year=%year%" -t "Track=%tracknr%" -t "Genre=%genre%" mac.exe %source% %dest% -c3000 -v
TOC of the extracted CD
Track | Start | Length | Start sector | End sector
---------------------------------------------------------
1 | 0:00.00 | 6:03.18 | 0 | 27242
2 | 6:03.18 | 6:07.05 | 27243 | 54772
3 | 12:10.23 | 13:16.69 | 54773 | 114541
4 | 25:27.17 | 12:06.58 | 114542 | 169049
5 | 37:34.00 | 6:38.00 | 169050 | 198899
6 | 44:12.00 | 22:40.00 | 198900 | 300899
Range status and errors
Selected range
Filename E:\Foobar-EAC\Reznicek - Schlemihl & Raskolnikof, Jurowski 2001.wav
Peak level 100.0 %
Extraction speed 5.0 X
Range quality 100.0 %
Test CRC 4D23268A
Copy CRC 4D23268A
Copy OK
No errors occurred
AccurateRip summary
Track 1 accurately ripped (confidence 2) [6C7C0E91] (AR v2)
Track 2 accurately ripped (confidence 2) [7D837AA5] (AR v2)
Track 3 accurately ripped (confidence 2) [F2A2560E] (AR v2)
Track 4 accurately ripped (confidence 2) [4CF9C45D] (AR v2)
Track 5 accurately ripped (confidence 2) [7EDF6E1E] (AR v2)
Track 6 accurately ripped (confidence 2) [AACDA825] (AR v2)
All tracks accurately ripped
End of status report
---- CUETools DB Plugin V2.1.3
[CTDB TOCID: 4dw6VdSjKXcEkfBiz5WQvHG_5zw-] found, Submit result: unrecognized or virtual drive
[37d11765] (1/1) Accurately ripped
==== Log checksum 1D529439E08C6D7AD44F3D2DF056954CA75F4B64B7BE2AA326260E3C7FC98246 ====

Содержание индексной карты (.CUE)

REM GENRE Symphonic
REM DATE 2001
REM DISCID 4D0FAC06
REM COMMENT "ExactAudioCopy v1.0b3"
CATALOG 0761203979523
PERFORMER "Reznicek"
TITLE "Schlemihl & Raskolnikof, Jurowski 2001"
FILE "Reznicek - Schlemihl & Raskolnikof, Jurowski 2001.ape" WAVE
TRACK 01 AUDIO
TITLE "Schlemihl (1911-1912) - I. Der Mann (Belebt, mit stolzem Schwung)"
PERFORMER "Reznicek"
ISRC DEB200179501
INDEX 01 00:00:00
TRACK 02 AUDIO
TITLE "Schlemihl (1911-1912) - II. Orgie (Scherzo)"
PERFORMER "Reznicek"
ISRC DEB200179502
INDEX 01 06:03:18
TRACK 03 AUDIO
TITLE "Schlemihl (1911-1912) - III. Die Frau (Adagio)"
PERFORMER "Reznicek"
ISRC DEB200179503
INDEX 01 12:10:23
TRACK 04 AUDIO
TITLE "Schlemihl (1911-1912) - IV. Belebt, mit stolzem Schwung"
PERFORMER "Reznicek"
ISRC DEB200179504
INDEX 00 25:27:15
INDEX 01 25:27:17
TRACK 05 AUDIO
TITLE "Schlemihl (1911-1912) - V. Sehr breit und feierlich"
PERFORMER "Reznicek"
ISRC DEB200179504
INDEX 00 37:33:73
INDEX 01 37:34:00
TRACK 06 AUDIO
TITLE "Raskolnikoff (1929) - Fantasie-Ouverture"
PERFORMER "Reznicek"
ISRC DEB200179506
INDEX 00 44:00:00
INDEX 01 44:12:00
Доп. информация:
That's right: Schlemihl, the Yiddish name for the poor schnook for whom nothing ever goes right.
That's right: Raskolnikoff, the idealistic murderer from Dostoyevsky's Crime and Punishment.
Apparently, there was something more to Emil Nikolaus von Reznicek than merely having composed the Overture to Donna Diana, the theme for the radio and television show Sgt. Preston of the Royal Mounted Police.
But not much more: in these recordings by Michail Jurowski and the WDR Sinfonieorchester Köln of Schlemihl and Raskolnikoff, Reznicek comes off as a pompous, pretentious, long-winded loudmouth.
The humor in Schlemihl is broad to the point of parody.
Indeed, Reznicek's point is parody: Schlemihl is filled with quotations, parodies, and ironies but utterly without wit, cogency, or compassion.
Even at the Jurowski and the WDR's glorious noise in the apotheosis of the 45-minute work, Schlemihl still sounds like a schmuck.
And Raskolnikoff is worse if only because Reznicek is being serious.
Which is to say that instead of parodying by means of quotations from another composer, Reznicek parodies by lifting the style of another composer.
He's serious when he writes bathetic, bombastic music; or pathetic, sentimental music; or writes banal, brutal music because it all sounds like third-rate Tchaikovsky with a dash of decadence.
Jurowski and the WDR do all that can be expected of them: they perform unpalatable music with professionalism.
CPO's sound is cool and clear even when the music is thick and opaque.



Показать сообщения:    

Текущее время: 04-Дек 13:17

Часовой пояс: UTC + 3


Вы не можете начинать темы
Вы не можете отвечать на сообщения
Вы не можете редактировать свои сообщения
Вы не можете удалять свои сообщения
Вы не можете голосовать в опросах
Вы не можете прикреплять файлы к сообщениям
Вы не можете скачивать файлы