(Baroque opera) Reinhard Keiser - Die grossmutige Tomyris [Великодушная Томирис] (Christoph Pregardien, Linde Consort, Hans-Martin Linde) - 1988, FLAC (tracks+.cue) lossless


 

[Цитировать]

Reinhard Keiser - Die grossmutige Tomyris

Жанр: Baroque opera
Страна-производитель диска: Made in Switzerland
Год издания диска: 1988
Издатель (лейбл): EMI Electrola GmbH
Номер по каталогу: 7 49466 2
Дата записи: 1988
Аудиокодек: FLAC
Тип рипа: tracks+.cue
Битрейт аудио: lossless
Продолжительность: 2 часа 20 минут
Источник: релизер
сайт-источник/ник/другое: Денис Куталёв
Наличие сканов в содержимом раздачи: да
Треклист:

скрытый текст

Disc: 1
1. Concerto Avanti I'opera a 5 - Vivace, Ma Non Presto
2. Lebe Lange, Tapfre Königin!
3. Ich Bin Vergnügt
4. Lebe Lange, Tapfre Königin!
5. Tanz Der Scythen Mit Bloßen Säbeln
6. Dein Opfer Hat Die Götter Nun Vergnügt
7. Non Star Dubioso
8. Unüberwindlichste, Ich Werd' Euch Bald Den Eid
9. Se Mai Perdo La Gloria D'amante
10. Unglücklichster Monarch!
11. Liebe, Rache, Zorn Und Wut
12. Lass Sich Die Könige Bei Mir Einfinden
13. Strahlt, Ihr Sterne, Meine Liebe
14. Sieh Da! Die Könige!
15. Proverà La Mia Catena
16. Bewünschter Ort, Wo Ich Vergnügungsvoll
17. Brecht Doch, Ihr Geliebten Schatten
18. Symphonie
19. Ihr Götter! Meroë Erscheint in Jener Höhle!
20. Mir Wird Bald Heiß, Bald Kalt
21. Spricht Mir Euer Hass, Ihr Schönen
22. Triumphiere, Siege, Lebe
23. Menuet
24. Loure
25. Bourrée - Loure
26. Geliebte Königin, Du Hast Die Siegeszeichen
27. Caro Bene!
28. So Wolltest Du Wohl Einen Ehgemahl
29. Amor, Fache Nicht Die Flammen
Disc: 2
1. Es Ist Mir Lieb, Dass Ich Dich Hier Erblicke
2. Eilet, Ihr Furien, Kommet Zusammen
3. Orontes, Deine Treu Ist Mir Gnugsam Bekannt
4. Mein Herbes Leid Und Scharfer Schmerz
5. Unglücklichste, Was Willst Du Nun Beginnen?
6. Kühle Winde, Saust Gelinde
7. Symphonie
8. Der Himmel Lachet Meine Rache
9. Deine Großmut, Deine Güte
10. Soll Mein Tigranes So Unschuldig Sterben
11. Kann Ich Meinen Schatz Nicht Retten
12. Hier Ist Das Edle Schild
13. Nell'apparenza DeI Gran Delitto
14. Was Stellt Ihr Euch Bei Dem Verräter Vor?
15. Tu Lusinghi, 0 Crudo Amore
16. Die Meroë!
17. Sterb' Ich Nur Um Dich, Mein Leben
18. Schweig, Tomyris Ist Hier
19. Rase Nur Gegen Dich Selbsten, Barbar
20. Ach, Tomyris! Dein Zorn
21. Mi Dice Onore, Tu Sei Felice
22. Nein! Nein! Tigranes Soll Nicht Sterben
23. Treulos Kind, Auf! Auf!
24. Tigranes Sterbe, Der Verräter!
25. Umwölke Doch, Vergessenheit
26. So Willst Du Sterben, Ach!
27. Treue, Liebe Herrschet
Исполнители:

скрытый текст

Reinhard Keiser (1674-1739)
Die großmütige Tomyris
Oper in 3 Handlungen (1717)
Libretto von Johann Joachim Hoë
Gabriele Fontana (soprano) - Tomyris;
Marianne Hirsti (soprano) - Meroë;
Christoph Prégardien (tenor) - Tigranes;
Stefan Dahlberg (tenor) - Policares;
Alan Cemore (baritone) - Doraspe;
Oskar Purg- staller (tenor) - Latyrus;
Wolfram Krohn (bass-baritone) - Orontes.
Linde Consort
(playing authentic Baroque instruments)
Conductor Hans-Martin Linde

Лог создания рипа

CD1
Exact Audio Copy V0.99 prebeta 5 from 4. May 2009
EAC extraction logfile from 31. October 2010, 18:12
Hans-Martin Linde / Keiser - Die Grossmutige Tomyris
Used drive : MATSHITADVD-RAM UJ880AS Adapter: 3 ID: 0
Read mode : Secure
Utilize accurate stream : Yes
Defeat audio cache : Yes
Make use of C2 pointers : No
Read offset correction : 102
Overread into Lead-In and Lead-Out : No
Fill up missing offset samples with silence : Yes
Delete leading and trailing silent blocks : No
Null samples used in CRC calculations : Yes
Used interface : Native Win32 interface for Win NT & 2000
Gap handling : Appended to previous track
Used output format : User Defined Encoder
Selected bitrate : 768 kBit/s
Quality : High
Add ID3 tag : No
Command line compressor : E:\Program Files (x86)\Exact Audio Copy\FLAC\FLAC.EXE
Additional command line options : -8 -V -T "ARTIST=%a" -T "TITLE=%t" -T "ALBUM=%g" -T "DATE=%y" -T "TRACKNUMBER=%n" -T "GENRE=%m" -T "COMMENT=EAC FLAC -8" %s
TOC of the extracted CD
Track | Start | Length | Start sector | End sector
---------------------------------------------------------
1 | 0:00.00 | 4:25.47 | 0 | 19921
2 | 4:25.47 | 1:14.38 | 19922 | 25509
3 | 5:40.10 | 2:31.47 | 25510 | 36881
4 | 8:11.57 | 0:23.10 | 36882 | 38616
5 | 8:34.67 | 0:48.23 | 38617 | 42239
6 | 9:23.15 | 2:39.00 | 42240 | 54164
7 | 12:02.15 | 0:57.70 | 54165 | 58509
8 | 13:00.10 | 1:12.65 | 58510 | 63974
9 | 14:13.00 | 4:01.37 | 63975 | 82086
10 | 18:14.37 | 4:56.38 | 82087 | 104324
11 | 23:11.00 | 3:30.45 | 104325 | 120119
12 | 26:41.45 | 3:06.02 | 120120 | 134071
13 | 29:47.47 | 4:25.45 | 134072 | 153991
14 | 34:13.17 | 3:10.10 | 153992 | 168251
15 | 37:23.27 | 2:19.25 | 168252 | 178701
16 | 39:42.52 | 2:33.55 | 178702 | 190231
17 | 42:16.32 | 1:22.53 | 190232 | 196434
18 | 43:39.10 | 0:29.15 | 196435 | 198624
19 | 44:08.25 | 2:02.37 | 198625 | 207811
20 | 46:10.62 | 4:12.00 | 207812 | 226711
21 | 50:22.62 | 3:12.33 | 226712 | 241144
22 | 53:35.20 | 0:57.17 | 241145 | 245436
23 | 54:32.37 | 1:18.33 | 245437 | 251319
24 | 55:50.70 | 1:02.72 | 251320 | 256041
25 | 56:53.67 | 1:19.20 | 256042 | 261986
26 | 58:13.12 | 2:12.18 | 261987 | 271904
27 | 60:25.30 | 1:29.20 | 271905 | 278599
28 | 61:54.50 | 0:56.12 | 278600 | 282811
29 | 62:50.62 | 5:53.10 | 282812 | 309296
Track 1
Filename E:\downloads\nero\01 Hans-Martin Linde – Track01.wav
Pre-gap length 0:00:02.00
Peak level 24.0 %
Track quality 99.9 %
Test CRC D9B97E0E
Copy CRC D9B97E0E
Track not present in AccurateRip database
Copy OK
Track 2
Filename E:\downloads\nero\02 Hans-Martin Linde – Track02.wav
Pre-gap length 0:00:00.02
Peak level 78.6 %
Track quality 100.0 %
Test CRC F9C04995
Copy CRC F9C04995
Track not present in AccurateRip database
Copy OK
Track 3
Filename E:\downloads\nero\03 Hans-Martin Linde – Track03.wav
Pre-gap length 0:00:00.04
Peak level 64.4 %
Track quality 100.0 %
Test CRC 09C778C8
Copy CRC 09C778C8
Track not present in AccurateRip database
Copy OK
Track 4
Filename E:\downloads\nero\04 Hans-Martin Linde – Track04.wav
Pre-gap length 0:00:00.02
Peak level 67.8 %
Track quality 100.0 %
Test CRC 1F788617
Copy CRC 1F788617
Track not present in AccurateRip database
Copy OK
Track 5
Filename E:\downloads\nero\05 Hans-Martin Linde – Track05.wav
Pre-gap length 0:00:00.02
Peak level 20.3 %
Track quality 100.0 %
Test CRC 8CFA280D
Copy CRC 8CFA280D
Track not present in AccurateRip database
Copy OK
Track 6
Filename E:\downloads\nero\06 Hans-Martin Linde – Track06.wav
Pre-gap length 0:00:00.04
Peak level 66.0 %
Track quality 100.0 %
Test CRC C571896A
Copy CRC C571896A
Track not present in AccurateRip database
Copy OK
Track 7
Filename E:\downloads\nero\07 Hans-Martin Linde – Track07.wav
Pre-gap length 0:00:00.04
Peak level 61.3 %
Track quality 100.0 %
Test CRC D8E0F1B7
Copy CRC D8E0F1B7
Track not present in AccurateRip database
Copy OK
Track 8
Filename E:\downloads\nero\08 Hans-Martin Linde – Track08.wav
Pre-gap length 0:00:00.04
Peak level 31.8 %
Track quality 100.0 %
Test CRC 04626108
Copy CRC 04626108
Track not present in AccurateRip database
Copy OK
Track 9
Filename E:\downloads\nero\09 Hans-Martin Linde – Track09.wav
Pre-gap length 0:00:00.04
Peak level 53.1 %
Track quality 100.0 %
Test CRC 0B1341DE
Copy CRC 0B1341DE
Track not present in AccurateRip database
Copy OK
Track 10
Filename E:\downloads\nero\10 Hans-Martin Linde – Track10.wav
Pre-gap length 0:00:00.02
Peak level 70.5 %
Track quality 99.9 %
Test CRC 75CD4EDF
Copy CRC 75CD4EDF
Track not present in AccurateRip database
Copy OK
Track 11
Filename E:\downloads\nero\11 Hans-Martin Linde – Track11.wav
Pre-gap length 0:00:00.04
Peak level 86.8 %
Track quality 100.0 %
Test CRC D6A99679
Copy CRC D6A99679
Track not present in AccurateRip database
Copy OK
Track 12
Filename E:\downloads\nero\12 Hans-Martin Linde – Track12.wav
Pre-gap length 0:00:00.04
Peak level 34.8 %
Track quality 100.0 %
Test CRC 3011E021
Copy CRC 3011E021
Track not present in AccurateRip database
Copy OK
Track 13
Filename E:\downloads\nero\13 Hans-Martin Linde – Track13.wav
Pre-gap length 0:00:00.02
Peak level 54.4 %
Track quality 100.0 %
Test CRC 38375F94
Copy CRC 38375F94
Track not present in AccurateRip database
Copy OK
Track 14
Filename E:\downloads\nero\14 Hans-Martin Linde – Track14.wav
Pre-gap length 0:00:00.02
Peak level 66.4 %
Track quality 100.0 %
Test CRC 8B0B642A
Copy CRC 8B0B642A
Track not present in AccurateRip database
Copy OK
Track 15
Filename E:\downloads\nero\15 Hans-Martin Linde – Track15.wav
Pre-gap length 0:00:00.02
Peak level 58.4 %
Track quality 100.0 %
Test CRC 78ED9E85
Copy CRC 78ED9E85
Track not present in AccurateRip database
Copy OK
Track 16
Filename E:\downloads\nero\16 Hans-Martin Linde – Track16.wav
Pre-gap length 0:00:00.02
Peak level 43.9 %
Track quality 99.9 %
Test CRC A588CC67
Copy CRC A588CC67
Track not present in AccurateRip database
Copy OK
Track 17
Filename E:\downloads\nero\17 Hans-Martin Linde – Track17.wav
Pre-gap length 0:00:00.02
Peak level 35.2 %
Track quality 99.8 %
Test CRC 0CAE1715
Copy CRC 0CAE1715
Track not present in AccurateRip database
Copy OK
Track 18
Filename E:\downloads\nero\18 Hans-Martin Linde – Track18.wav
Pre-gap length 0:00:00.04
Peak level 19.7 %
Track quality 99.6 %
Test CRC 7887F2A7
Copy CRC 7887F2A7
Track not present in AccurateRip database
Copy OK
Track 19
Filename E:\downloads\nero\19 Hans-Martin Linde – Track19.wav
Pre-gap length 0:00:00.04
Peak level 41.6 %
Track quality 100.0 %
Test CRC 45E3AC2B
Copy CRC 45E3AC2B
Track not present in AccurateRip database
Copy OK
Track 20
Filename E:\downloads\nero\20 Hans-Martin Linde – Track20.wav
Pre-gap length 0:00:00.02
Peak level 80.4 %
Track quality 99.9 %
Test CRC 901F47B1
Copy CRC 901F47B1
Track not present in AccurateRip database
Copy OK
Track 21
Filename E:\downloads\nero\21 Hans-Martin Linde – Track21.wav
Pre-gap length 0:00:00.02
Peak level 32.4 %
Track quality 100.0 %
Test CRC 5C78C211
Copy CRC 5C78C211
Track not present in AccurateRip database
Copy OK
Track 22
Filename E:\downloads\nero\22 Hans-Martin Linde – Track22.wav
Pre-gap length 0:00:08.53
Peak level 32.6 %
Track quality 100.0 %
Test CRC 246AD46B
Copy CRC 246AD46B
Track not present in AccurateRip database
Copy OK
Track 23
Filename E:\downloads\nero\23 Hans-Martin Linde – Track23.wav
Pre-gap length 0:00:00.02
Peak level 20.7 %
Track quality 100.0 %
Test CRC CA805278
Copy CRC CA805278
Track not present in AccurateRip database
Copy OK
Track 24
Filename E:\downloads\nero\24 Hans-Martin Linde – Track24.wav
Pre-gap length 0:00:00.04
Peak level 25.1 %
Track quality 100.0 %
Test CRC 74DA3A08
Copy CRC 74DA3A08
Track not present in AccurateRip database
Copy OK
Track 25
Filename E:\downloads\nero\25 Hans-Martin Linde – Track25.wav
Pre-gap length 0:00:00.02
Peak level 26.8 %
Track quality 100.0 %
Test CRC 1193D1D4
Copy CRC 1193D1D4
Track not present in AccurateRip database
Copy OK
Track 26
Filename E:\downloads\nero\26 Hans-Martin Linde – Track26.wav
Pre-gap length 0:00:00.02
Peak level 38.4 %
Track quality 100.0 %
Test CRC E0E41E42
Copy CRC E0E41E42
Track not present in AccurateRip database
Copy OK
Track 27
Filename E:\downloads\nero\27 Hans-Martin Linde – Track27.wav
Pre-gap length 0:00:00.04
Peak level 35.5 %
Track quality 100.0 %
Test CRC 8ABCD623
Copy CRC 8ABCD623
Track not present in AccurateRip database
Copy OK
Track 28
Filename E:\downloads\nero\28 Hans-Martin Linde – Track28.wav
Pre-gap length 0:00:00.04
Peak level 36.1 %
Track quality 100.0 %
Test CRC 5B7A99CE
Copy CRC 5B7A99CE
Track not present in AccurateRip database
Copy OK
Track 29
Filename E:\downloads\nero\29 Hans-Martin Linde – Track29.wav
Pre-gap length 0:00:00.02
Peak level 84.5 %
Track quality 100.0 %
Test CRC 3F3ADDDF
Copy CRC 3F3ADDDF
Track not present in AccurateRip database
Copy OK
None of the tracks are present in the AccurateRip database
No errors occurred
End of status report
CD2
Exact Audio Copy V0.99 prebeta 5 from 4. May 2009
EAC extraction logfile from 31. October 2010, 21:00
Hans-Martin Linde / Keiser - Die Grossmutige Tomyris (CD 2)
Used drive : MATSHITADVD-RAM UJ880AS Adapter: 3 ID: 0
Read mode : Secure
Utilize accurate stream : Yes
Defeat audio cache : Yes
Make use of C2 pointers : No
Read offset correction : 102
Overread into Lead-In and Lead-Out : No
Fill up missing offset samples with silence : Yes
Delete leading and trailing silent blocks : No
Null samples used in CRC calculations : Yes
Used interface : Native Win32 interface for Win NT & 2000
Gap handling : Appended to previous track
Used output format : User Defined Encoder
Selected bitrate : 768 kBit/s
Quality : High
Add ID3 tag : No
Command line compressor : E:\Program Files (x86)\Exact Audio Copy\FLAC\FLAC.EXE
Additional command line options : -8 -V -T "ARTIST=%a" -T "TITLE=%t" -T "ALBUM=%g" -T "DATE=%y" -T "TRACKNUMBER=%n" -T "GENRE=%m" -T "COMMENT=EAC FLAC -8" %s
TOC of the extracted CD
Track | Start | Length | Start sector | End sector
---------------------------------------------------------
1 | 0:00.00 | 4:05.23 | 0 | 18397
2 | 4:05.23 | 2:21.22 | 18398 | 28994
3 | 6:26.45 | 3:00.35 | 28995 | 42529
4 | 9:27.05 | 3:31.03 | 42530 | 58357
5 | 12:58.08 | 1:05.37 | 58358 | 63269
6 | 14:03.45 | 3:26.63 | 63270 | 78782
7 | 17:30.33 | 2:55.57 | 78783 | 91964
8 | 20:26.15 | 3:04.73 | 91965 | 105837
9 | 23:31.13 | 1:17.37 | 105838 | 111649
10 | 24:48.50 | 0:57.25 | 111650 | 115949
11 | 25:46.00 | 3:57.05 | 115950 | 133729
12 | 29:43.05 | 5:10.35 | 133730 | 157014
13 | 34:53.40 | 2:32.68 | 157015 | 168482
14 | 37:26.33 | 2:20.30 | 168483 | 179012
15 | 39:46.63 | 2:17.12 | 179013 | 189299
16 | 42:04.00 | 1:21.18 | 189300 | 195392
17 | 43:25.18 | 3:06.60 | 195393 | 209402
18 | 46:32.03 | 2:09.32 | 209403 | 219109
19 | 48:41.35 | 4:17.70 | 219110 | 238454
20 | 52:59.30 | 0:50.35 | 238455 | 242239
21 | 53:49.65 | 2:14.40 | 242240 | 252329
22 | 56:04.30 | 0:54.20 | 252330 | 256399
23 | 56:58.50 | 1:09.50 | 256400 | 261624
24 | 58:08.25 | 2:40.65 | 261625 | 273689
25 | 60:49.15 | 3:51.33 | 273690 | 291047
26 | 64:40.48 | 5:44.00 | 291048 | 316847
27 | 70:24.48 | 0:53.65 | 316848 | 320887
Track 1
Filename E:\downloads\nero\01 Hans-Martin Linde – Track01.wav
Pre-gap length 0:00:02.00
Peak level 71.6 %
Track quality 100.0 %
Test CRC F8E1FD4E
Copy CRC F8E1FD4E
Track not present in AccurateRip database
Copy OK
Track 2
Filename E:\downloads\nero\02 Hans-Martin Linde – Track02.wav
Pre-gap length 0:00:00.04
Peak level 85.7 %
Track quality 100.0 %
Test CRC B0435B4E
Copy CRC B0435B4E
Track not present in AccurateRip database
Copy OK
Track 3
Filename E:\downloads\nero\03 Hans-Martin Linde – Track03.wav
Pre-gap length 0:00:00.02
Peak level 56.4 %
Track quality 100.0 %
Test CRC 13ECF813
Copy CRC 13ECF813
Track not present in AccurateRip database
Copy OK
Track 4
Filename E:\downloads\nero\04 Hans-Martin Linde – Track04.wav
Pre-gap length 0:00:00.02
Peak level 75.8 %
Track quality 100.0 %
Test CRC F1657C6F
Copy CRC F1657C6F
Track not present in AccurateRip database
Copy OK
Track 5
Filename E:\downloads\nero\05 Hans-Martin Linde – Track05.wav
Pre-gap length 0:00:00.04
Peak level 43.6 %
Track quality 100.0 %
Test CRC 9473157F
Copy CRC 9473157F
Track not present in AccurateRip database
Copy OK
Track 6
Filename E:\downloads\nero\06 Hans-Martin Linde – Track06.wav
Pre-gap length 0:00:00.02
Peak level 32.7 %
Track quality 100.0 %
Test CRC 9696934B
Copy CRC 9696934B
Track not present in AccurateRip database
Copy OK
Track 7
Filename E:\downloads\nero\07 Hans-Martin Linde – Track07.wav
Pre-gap length 0:00:00.04
Peak level 22.5 %
Track quality 100.0 %
Test CRC C6F845CB
Copy CRC C6F845CB
Track not present in AccurateRip database
Copy OK
Track 8
Filename E:\downloads\nero\08 Hans-Martin Linde – Track08.wav
Pre-gap length 0:00:00.02
Peak level 48.3 %
Track quality 99.9 %
Test CRC 5C9B75F5
Copy CRC 5C9B75F5
Track not present in AccurateRip database
Copy OK
Track 9
Filename E:\downloads\nero\09 Hans-Martin Linde – Track09.wav
Pre-gap length 0:00:00.04
Peak level 44.4 %
Track quality 100.0 %
Test CRC 5086758F
Copy CRC 5086758F
Track not present in AccurateRip database
Copy OK
Track 10
Filename E:\downloads\nero\10 Hans-Martin Linde – Track10.wav
Pre-gap length 0:00:00.02
Peak level 53.1 %
Track quality 100.0 %
Test CRC C105F14A
Copy CRC C105F14A
Track not present in AccurateRip database
Copy OK
Track 11
Filename E:\downloads\nero\11 Hans-Martin Linde – Track11.wav
Pre-gap length 0:00:00.02
Peak level 65.4 %
Track quality 100.0 %
Test CRC 3C63BD8C
Copy CRC 3C63BD8C
Track not present in AccurateRip database
Copy OK
Track 12
Filename E:\downloads\nero\12 Hans-Martin Linde – Track12.wav
Pre-gap length 0:00:08.89
Peak level 50.3 %
Track quality 99.9 %
Test CRC 1AB8D262
Copy CRC 1AB8D262
Track not present in AccurateRip database
Copy OK
Track 13
Filename E:\downloads\nero\13 Hans-Martin Linde – Track13.wav
Pre-gap length 0:00:00.02
Peak level 35.5 %
Track quality 100.0 %
Test CRC 5BE319FC
Copy CRC 5BE319FC
Track not present in AccurateRip database
Copy OK
Track 14
Filename E:\downloads\nero\14 Hans-Martin Linde – Track14.wav
Pre-gap length 0:00:00.04
Peak level 74.7 %
Track quality 100.0 %
Test CRC FDB90EFB
Copy CRC FDB90EFB
Track not present in AccurateRip database
Copy OK
Track 15
Filename E:\downloads\nero\15 Hans-Martin Linde – Track15.wav
Pre-gap length 0:00:00.04
Peak level 76.9 %
Track quality 99.9 %
Test CRC 77094983
Copy CRC 77094983
Track not present in AccurateRip database
Copy OK
Track 16
Filename E:\downloads\nero\16 Hans-Martin Linde – Track16.wav
Pre-gap length 0:00:00.02
Peak level 49.4 %
Track quality 100.0 %
Test CRC 477956B3
Copy CRC 477956B3
Track not present in AccurateRip database
Copy OK
Track 17
Filename E:\downloads\nero\17 Hans-Martin Linde – Track17.wav
Pre-gap length 0:00:00.04
Peak level 72.9 %
Track quality 100.0 %
Test CRC F5337DD5
Copy CRC F5337DD5
Track not present in AccurateRip database
Copy OK
Track 18
Filename E:\downloads\nero\18 Hans-Martin Linde – Track18.wav
Pre-gap length 0:00:00.04
Peak level 64.8 %
Track quality 100.0 %
Test CRC 09686101
Copy CRC 09686101
Track not present in AccurateRip database
Copy OK
Track 19
Filename E:\downloads\nero\19 Hans-Martin Linde – Track19.wav
Pre-gap length 0:00:00.02
Peak level 96.9 %
Track quality 100.0 %
Test CRC C1E37E9A
Copy CRC C1E37E9A
Track not present in AccurateRip database
Copy OK
Track 20
Filename E:\downloads\nero\20 Hans-Martin Linde – Track20.wav
Pre-gap length 0:00:00.02
Peak level 21.9 %
Track quality 99.7 %
Test CRC 624F8FCA
Copy CRC 624F8FCA
Track not present in AccurateRip database
Copy OK
Track 21
Filename E:\downloads\nero\21 Hans-Martin Linde – Track21.wav
Pre-gap length 0:00:00.02
Peak level 39.9 %
Track quality 100.0 %
Test CRC 44AAAF3D
Copy CRC 44AAAF3D
Track not present in AccurateRip database
Copy OK
Track 22
Filename E:\downloads\nero\22 Hans-Martin Linde – Track22.wav
Pre-gap length 0:00:00.02
Peak level 40.1 %
Track quality 100.0 %
Test CRC A556E674
Copy CRC A556E674
Track not present in AccurateRip database
Copy OK
Track 23
Filename E:\downloads\nero\23 Hans-Martin Linde – Track23.wav
Pre-gap length 0:00:00.02
Peak level 56.8 %
Track quality 100.0 %
Test CRC DDF951E9
Copy CRC DDF951E9
Track not present in AccurateRip database
Copy OK
Track 24
Filename E:\downloads\nero\24 Hans-Martin Linde – Track24.wav
Pre-gap length 0:00:00.02
Peak level 71.0 %
Track quality 100.0 %
Test CRC 567104CB
Copy CRC 567104CB
Track not present in AccurateRip database
Copy OK
Track 25
Filename E:\downloads\nero\25 Hans-Martin Linde – Track25.wav
Pre-gap length 0:00:00.02
Peak level 71.1 %
Track quality 99.9 %
Test CRC D0A11186
Copy CRC D0A11186
Track not present in AccurateRip database
Copy OK
Track 26
Filename E:\downloads\nero\26 Hans-Martin Linde – Track26.wav
Pre-gap length 0:00:00.04
Peak level 90.2 %
Track quality 99.9 %
Test CRC 7CFEDCF2
Copy CRC 7CFEDCF2
Track not present in AccurateRip database
Copy OK
Track 27
Filename E:\downloads\nero\27 Hans-Martin Linde – Track27.wav
Pre-gap length 0:00:00.04
Peak level 89.5 %
Track quality 100.0 %
Test CRC DB609B25
Copy CRC DB609B25
Track not present in AccurateRip database
Copy OK
None of the tracks are present in the AccurateRip database
No errors occurred
End of status report
Содержание индексной карты (.CUE)
CD1

скрытый текст

REM GENRE Opera
REM DATE 1988
REM DISCID AB101B1D
REM COMMENT "ExactAudioCopy v0.99pb5"
TITLE "Keiser - Die Grossmutige Tomyris"
PERFORMER "Hans-Martin Linde"
FILE "01 Concerto a 5.flac" WAVE ; 265626.667 milliseconds
TRACK 01 AUDIO
TITLE Track01
PERFORMER "Hans-Martin Linde"
INDEX 01 00:00:00
TRACK 02 AUDIO
TITLE Track02
PERFORMER "Hans-Martin Linde"
INDEX 00 04:25:45
FILE "02 Lebe Lange, Tapfre Konigin.flac" WAVE ; 74506.667 milliseconds
INDEX 01 00:00:00
TRACK 03 AUDIO
TITLE Track03
PERFORMER "Hans-Martin Linde"
INDEX 00 01:14:35
FILE "03 Ich Bin Vergnugt.flac" WAVE ; 151626.667 milliseconds
INDEX 01 00:00:00
TRACK 04 AUDIO
TITLE Track04
PERFORMER "Hans-Martin Linde"
INDEX 00 02:31:45
FILE "04 Lebe Lange, Tapfre Konigin.flac" WAVE ; 23133.333 milliseconds
INDEX 01 00:00:00
TRACK 05 AUDIO
TITLE Track05
PERFORMER "Hans-Martin Linde"
INDEX 00 00:23:08
FILE "05 Tanz Der Scythen Mit Blossen Sabeln.flac" WAVE ; 48306.667 milliseconds
INDEX 01 00:00:00
TRACK 06 AUDIO
TITLE Track06
PERFORMER "Hans-Martin Linde"
INDEX 00 00:48:20
FILE "06 Dein Opfer Hat Die Gotter Nun Vergnugt.flac" WAVE ; 159000.000 milliseconds
INDEX 01 00:00:00
TRACK 07 AUDIO
TITLE Track07
PERFORMER "Hans-Martin Linde"
INDEX 00 02:38:72
FILE "07 Non Star Dubioso.flac" WAVE ; 57933.333 milliseconds
INDEX 01 00:00:00
TRACK 08 AUDIO
TITLE Track08
PERFORMER "Hans-Martin Linde"
INDEX 00 00:57:67
FILE "08 Unuberwindlichste, Ich Werd'euch Bald Den Eid.flac" WAVE ; 72866.667 milliseconds
INDEX 01 00:00:00
TRACK 09 AUDIO
TITLE Track09
PERFORMER "Hans-Martin Linde"
INDEX 00 01:12:62
FILE "09 Se Mai Perdo La Gloria D'amante.flac" WAVE ; 241493.333 milliseconds
INDEX 01 00:00:00
TRACK 10 AUDIO
TITLE Track10
PERFORMER "Hans-Martin Linde"
INDEX 00 04:01:35
FILE "10 Unglucklichster Monarch.flac" WAVE ; 296506.667 milliseconds
INDEX 01 00:00:00
TRACK 11 AUDIO
TITLE Track11
PERFORMER "Hans-Martin Linde"
INDEX 00 04:56:35
FILE "11 Liebe, Rache, Zorn Und Wut.flac" WAVE ; 210600.000 milliseconds
INDEX 01 00:00:00
TRACK 12 AUDIO
TITLE Track12
PERFORMER "Hans-Martin Linde"
INDEX 00 03:30:42
FILE "12 Lass Sich Die Konige Bei Mir Einfinden.flac" WAVE ; 186026.667 milliseconds
INDEX 01 00:00:00
TRACK 13 AUDIO
TITLE Track13
PERFORMER "Hans-Martin Linde"
INDEX 00 03:06:00
FILE "13 Strahlt, Ihr Sterne, Meine Liebe.flac" WAVE ; 265600.000 milliseconds
INDEX 01 00:00:00
TRACK 14 AUDIO
TITLE Track14
PERFORMER "Hans-Martin Linde"
INDEX 00 04:25:43
FILE "14 Sieh Da! Die Konige!.flac" WAVE ; 190133.333 milliseconds
INDEX 01 00:00:00
TRACK 15 AUDIO
TITLE Track15
PERFORMER "Hans-Martin Linde"
INDEX 00 03:10:08
FILE "15 Provera La Mia Catena.flac" WAVE ; 139333.333 milliseconds
INDEX 01 00:00:00
TRACK 16 AUDIO
TITLE Track16
PERFORMER "Hans-Martin Linde"
INDEX 00 02:19:23
FILE "16 Bewunschter Ort, Wo Ich Vergnugungsvoll.flac" WAVE ; 153733.333 milliseconds
INDEX 01 00:00:00
TRACK 17 AUDIO
TITLE Track17
PERFORMER "Hans-Martin Linde"
INDEX 00 02:33:53
FILE "17 Brecht Doch, Ihr Geliebten Schatten.flac" WAVE ; 82706.667 milliseconds
INDEX 01 00:00:00
TRACK 18 AUDIO
TITLE Track18
PERFORMER "Hans-Martin Linde"
INDEX 00 01:22:50
FILE "18 Sinfonie.flac" WAVE ; 29200.000 milliseconds
INDEX 01 00:00:00
TRACK 19 AUDIO
TITLE Track19
PERFORMER "Hans-Martin Linde"
INDEX 00 00:29:12
FILE "19 Ihr Gotter! Meroe Erscheint In Jener Hohle.flac" WAVE ; 122493.333 milliseconds
INDEX 01 00:00:00
TRACK 20 AUDIO
TITLE Track20
PERFORMER "Hans-Martin Linde"
INDEX 00 02:02:35
FILE "20 Mir Wird Bald Heiss, Bald Kalt.flac" WAVE ; 252000.000 milliseconds
INDEX 01 00:00:00
TRACK 21 AUDIO
TITLE Track21
PERFORMER "Hans-Martin Linde"
INDEX 00 04:11:73
FILE "21 Spricht Mir Euer Hass, Ihr Schonen.flac" WAVE ; 192440.000 milliseconds
INDEX 01 00:00:00
TRACK 22 AUDIO
TITLE Track22
PERFORMER "Hans-Martin Linde"
INDEX 00 03:03:68
FILE "22 Triumphiere, Siege, Lebe.flac" WAVE ; 57226.667 milliseconds
INDEX 01 00:00:00
TRACK 23 AUDIO
TITLE Track23
PERFORMER "Hans-Martin Linde"
INDEX 00 00:57:15
FILE "23 Menuett.flac" WAVE ; 78440.000 milliseconds
INDEX 01 00:00:00
TRACK 24 AUDIO
TITLE Track24
PERFORMER "Hans-Martin Linde"
INDEX 00 01:18:30
FILE "24 Loure.flac" WAVE ; 62960.000 milliseconds
INDEX 01 00:00:00
TRACK 25 AUDIO
TITLE Track25
PERFORMER "Hans-Martin Linde"
INDEX 00 01:02:70
FILE "25 Bouree - Loure.flac" WAVE ; 79266.667 milliseconds
INDEX 01 00:00:00
TRACK 26 AUDIO
TITLE Track26
PERFORMER "Hans-Martin Linde"
INDEX 00 01:19:18
FILE "26 Geliebte Konigin, Du Hast Die Siegeszeichen.flac" WAVE ; 132240.000 milliseconds
INDEX 01 00:00:00
TRACK 27 AUDIO
TITLE Track27
PERFORMER "Hans-Martin Linde"
INDEX 00 02:12:15
FILE "27 Caro Bene!.flac" WAVE ; 89266.667 milliseconds
INDEX 01 00:00:00
TRACK 28 AUDIO
TITLE Track28
PERFORMER "Hans-Martin Linde"
INDEX 00 01:29:17
FILE "28 So Wolltest Du Wohl Einen Ehgemahl.flac" WAVE ; 56160.000 milliseconds
INDEX 01 00:00:00
TRACK 29 AUDIO
TITLE Track29
PERFORMER "Hans-Martin Linde"
INDEX 00 00:56:10
FILE "29 Amor, Fache Nicht Die Flammen.flac" WAVE ; 353133.333 milliseconds
INDEX 01 00:00:00
CD2

скрытый текст

REM GENRE Opera
REM DATE 1988
REM DISCID 9610B61B
REM COMMENT "ExactAudioCopy v0.99pb5"
TITLE "Keiser - Die Grossmutige Tomyris (CD 2)"
PERFORMER "Gabriele Fontana, Marianne Hirsti et al. Linde-Consort. Hans-Martin Linde"
FILE "01 Es Ist Mir Lieb, Dass Ich Dich Hier Erblicke.flac" WAVE ; 245306.667 milliseconds
TRACK 01 AUDIO
TITLE Track01
PERFORMER "Hans-Martin Linde"
INDEX 01 00:00:00
TRACK 02 AUDIO
TITLE Track02
PERFORMER "Hans-Martin Linde"
INDEX 00 04:05:20
FILE "02 Eilet, Ihr Furien, Kommet Zusammen.flac" WAVE ; 141293.333 milliseconds
INDEX 01 00:00:00
TRACK 03 AUDIO
TITLE Track03
PERFORMER "Hans-Martin Linde"
INDEX 00 02:21:20
FILE "03 Orontes, Deine Treu Ist Mir Gnugsam Bekannt.flac" WAVE ; 180466.667 milliseconds
INDEX 01 00:00:00
TRACK 04 AUDIO
TITLE Track04
PERFORMER "Hans-Martin Linde"
INDEX 00 03:00:33
FILE "04 Mein Herbes Leid Und Scharfer Schmerz.flac" WAVE ; 211040.000 milliseconds
INDEX 01 00:00:00
TRACK 05 AUDIO
TITLE Track05
PERFORMER "Hans-Martin Linde"
INDEX 00 03:31:00
FILE "05 Unglucklichste, Was Willst Du Nun Beginnen.flac" WAVE ; 65493.333 milliseconds
INDEX 01 00:00:00
TRACK 06 AUDIO
TITLE Track06
PERFORMER "Hans-Martin Linde"
INDEX 00 01:05:35
FILE "06 Kuhle Winde, Saust Geschwinde.flac" WAVE ; 206840.000 milliseconds
INDEX 01 00:00:00
TRACK 07 AUDIO
TITLE Track07
PERFORMER "Hans-Martin Linde"
INDEX 00 03:26:60
FILE "07 Symphonie Nr. 28.flac" WAVE ; 175760.000 milliseconds
INDEX 01 00:00:00
TRACK 08 AUDIO
TITLE Track08
PERFORMER "Hans-Martin Linde"
INDEX 00 02:55:55
FILE "08 Der Himmel Lachet Meine Rache.flac" WAVE ; 184973.333 milliseconds
INDEX 01 00:00:00
TRACK 09 AUDIO
TITLE Track09
PERFORMER "Hans-Martin Linde"
INDEX 00 03:04:70
FILE "09 Deine Grossmut, Deine Gute.flac" WAVE ; 77493.333 milliseconds
INDEX 01 00:00:00
TRACK 10 AUDIO
TITLE Track10
PERFORMER "Hans-Martin Linde"
INDEX 00 01:17:35
FILE "10 Soll Mein Tigranes So Unschuldig Sterben.flac" WAVE ; 57333.333 milliseconds
INDEX 01 00:00:00
TRACK 11 AUDIO
TITLE Track11
PERFORMER "Hans-Martin Linde"
INDEX 00 00:57:23
FILE "11 Kann Ich Meinen Schatz Nicht Retten - Dritter Handlung.flac" WAVE ; 237066.667 milliseconds
INDEX 01 00:00:00
TRACK 12 AUDIO
TITLE Track12
PERFORMER "Hans-Martin Linde"
INDEX 00 03:48:13
FILE "12 Hier Ist Das Edle Schild.flac" WAVE ; 310466.667 milliseconds
INDEX 01 00:00:00
TRACK 13 AUDIO
TITLE Track13
PERFORMER "Hans-Martin Linde"
INDEX 00 05:10:33
FILE "13 Nell'apparenza Del Gran Delitto.flac" WAVE ; 152906.667 milliseconds
INDEX 01 00:00:00
TRACK 14 AUDIO
TITLE Track14
PERFORMER "Hans-Martin Linde"
INDEX 00 02:32:65
FILE "14 Was Stellt Ihr Euch Bei Dem Verrater Vor.flac" WAVE ; 140400.000 milliseconds
INDEX 01 00:00:00
TRACK 15 AUDIO
TITLE Track15
PERFORMER "Hans-Martin Linde"
INDEX 00 02:20:27
FILE "15 Tu Lusinghi, O Crudo Amore Nr. 34.flac" WAVE ; 137160.000 milliseconds
INDEX 01 00:00:00
TRACK 16 AUDIO
TITLE Track16
PERFORMER "Hans-Martin Linde"
INDEX 00 02:17:10
FILE "16 Die Meroe!.flac" WAVE ; 81240.000 milliseconds
INDEX 01 00:00:00
TRACK 17 AUDIO
TITLE Track17
PERFORMER "Hans-Martin Linde"
INDEX 00 01:21:15
FILE "17 Sterb'ich Nur Um Dich, Mein Leben.flac" WAVE ; 186800.000 milliseconds
INDEX 01 00:00:00
TRACK 18 AUDIO
TITLE Track18
PERFORMER "Hans-Martin Linde"
INDEX 00 03:06:57
FILE "18 Schweig, Tomyris Ist Hier.flac" WAVE ; 129426.667 milliseconds
INDEX 01 00:00:00
TRACK 19 AUDIO
TITLE Track19
PERFORMER "Hans-Martin Linde"
INDEX 00 02:09:30
FILE "19 Rase Nur Gegen Dich Selbsten, Barbar.flac" WAVE ; 257933.333 milliseconds
INDEX 01 00:00:00
TRACK 20 AUDIO
TITLE Track20
PERFORMER "Hans-Martin Linde"
INDEX 00 04:17:68
FILE "20 Ach, Tomyris! Dein Zorn.flac" WAVE ; 50466.667 milliseconds
INDEX 01 00:00:00
TRACK 21 AUDIO
TITLE Track21
PERFORMER "Hans-Martin Linde"
INDEX 00 00:50:33
FILE "21 Mi Dice Onore, Tu Sei Felice.flac" WAVE ; 134533.333 milliseconds
INDEX 01 00:00:00
TRACK 22 AUDIO
TITLE Track22
PERFORMER "Hans-Martin Linde"
INDEX 00 02:14:38
FILE "22 Nein! Nein! Tigranes Soll Nicht Sterben.flac" WAVE ; 54266.667 milliseconds
INDEX 01 00:00:00
TRACK 23 AUDIO
TITLE Track23
PERFORMER "Hans-Martin Linde"
INDEX 00 00:54:18
FILE "23 Treuloses Kind, Auf! Auf!.flac" WAVE ; 69666.667 milliseconds
INDEX 01 00:00:00
TRACK 24 AUDIO
TITLE Track24
PERFORMER "Hans-Martin Linde"
INDEX 00 01:09:48
FILE "24 Tigranes Sterbe, Der Verrater!.flac" WAVE ; 160866.667 milliseconds
INDEX 01 00:00:00
TRACK 25 AUDIO
TITLE Track25
PERFORMER "Hans-Martin Linde"
INDEX 00 02:40:63
FILE "25 Umwolke Doch, Vergessenheit.flac" WAVE ; 231440.000 milliseconds
INDEX 01 00:00:00
TRACK 26 AUDIO
TITLE Track26
PERFORMER "Hans-Martin Linde"
INDEX 00 03:51:30
FILE "26 So Willst Du Sterben, Ach!.flac" WAVE ; 344000.000 milliseconds
INDEX 01 00:00:00
TRACK 27 AUDIO
TITLE Track27
PERFORMER "Hans-Martin Linde"
INDEX 00 05:43:72
FILE "27 Treue, Liebe Herrschet Nr. 41.flac" WAVE ; 53866.667 milliseconds
INDEX 01 00:00:00



Показать сообщения:    

Текущее время: 03-Дек 12:36

Часовой пояс: UTC + 3


Вы не можете начинать темы
Вы не можете отвечать на сообщения
Вы не можете редактировать свои сообщения
Вы не можете удалять свои сообщения
Вы не можете голосовать в опросах
Вы не можете прикреплять файлы к сообщениям
Вы не можете скачивать файлы