Без вины виноватые (Пётр Фоменко) [1994, драма, DVB] Голсударственный Академический Театр имени Евг. Вахтангова


 

[Цитировать]

Без вины виноватые
Название театра: Голсударственный Академический Театр имени Евг. Вахтангова
Жанр: драма
Год выпуска: 1994
Продолжительность: 01:20:21 + 01:30:29
Режиссёр: Пётр Фоменко
В ролях: Юлия Борисова, Людмила Максакова, Алла Казанская, Юрий Яковлев, Евгений Князев, Юрий Волынцев, Анатолий Меньщиков, Вячеслав Шалевич, Виктор Зозулин, Елена Сотникова, Марина Есипенко, Юрий Красков, Ольга Гаврилюк, Инна Алабина, Владимир Бранд, Валерий Герасимов
Описание: Спустя двадцать лет в провинциальный городок приезжает на гастроли известная актриса Кручинина Елена Ивановна, бежавшая когда-то из этих мест после того, как ей объявили о смерти её пятилетнего сына, а отец её ребенка женился на богатой девице . В городке ей встречается талантливый и бесшабашный молодой актёр Григорий Незнамов, которому она хочет помочь. В то же время она узнаёт, что её сын выздоровел и был отдан в бездетную семью. Богатый покровитель изящных искусств Нил Стратоныч Дудукин приглашает на приём весь высший свет города и актёров местного театра.
Доп. информация:
Запись потока *.ts со спутника Ямал 202, 49° в.д., ремукс в *.mpg программой VideoReDo.
Качество видео: DVB
Формат видео: MPEG-PS
Видео: MPEG Video, 720(768)x576 (4:3), 25,000 кадров/сек, 5323 Кбит/сек
Аудио: MPEG Audio, 48,0 КГц, 256 Кбит/сек, 2 канала

MediaInfo

Общее
Полное имя : E:\Torrent\Без вины виноватые\Без вины виноватые 1 (Kultura-3).mpg
Формат : MPEG-PS
Размер файла : 3,20 Гбайт
Продолжительность : 1 ч. 20 м.
Режим общего битрейта : Переменный
Общий поток : 5693 Кбит/сек
Видео
Идентификатор : 224 (0xE0)
Формат : MPEG Video
Версия формата : Version 2
Профиль формата : Main@Main
Параметр BVOP формата : Да
Параметр матрицы формата : Выборочная
Параметр GOP формата : M=3, N=15
Продолжительность : 1 ч. 20 м.
Вид битрейта : Переменный
Битрейт : 5323 Кбит/сек
Максимальный битрейт : 15,0 Мбит/сек
Ширина : 720 пикселей
Высота : 576 пикселей
Соотношение сторон : 4:3
Частота кадров : 25,000 кадров/сек
Стандарт вещания : PAL
Цветовое пространство : YUV
Субдискретизация насыщенности : 4:2:0
Битовая глубина : 8 бит
Тип развёртки : Чересстрочная
Порядок развёртки : Верхнее поле первое
Метод сжатия : С потерями
Бит/(Пиксели*Кадры) : 0.513
Временной код первого кадра : 00:00:00:00
Оригинал временного кода : Group of pictures header
Размер потока : 2,99 Гбайт (94%)
Аудио
Идентификатор : 192 (0xC0)
Формат : MPEG Audio
Версия формата : Version 1
Профиль формата : Layer 2
Продолжительность : 1 ч. 20 м.
Вид битрейта : Постоянный
Битрейт : 256 Кбит/сек
Каналы : 2 канала
Частота : 48,0 КГц
Метод сжатия : С потерями
Задержка видео : 5 мс.
Размер потока : 147 Мбайт (4%)
Общее
Полное имя : E:\Torrent\Без вины виноватые\Без вины виноватые 2 (Kultura-3).mpg
Формат : MPEG-PS
Размер файла : 3,60 Гбайт
Продолжительность : 1 ч. 30 м.
Режим общего битрейта : Переменный
Общий поток : 5692 Кбит/сек
Видео
Идентификатор : 224 (0xE0)
Формат : MPEG Video
Версия формата : Version 2
Профиль формата : Main@Main
Параметр BVOP формата : Да
Параметр матрицы формата : Выборочная
Параметр GOP формата : M=3, N=15
Продолжительность : 1 ч. 30 м.
Вид битрейта : Переменный
Битрейт : 5323 Кбит/сек
Максимальный битрейт : 15,0 Мбит/сек
Ширина : 720 пикселей
Высота : 576 пикселей
Соотношение сторон : 4:3
Частота кадров : 25,000 кадров/сек
Стандарт вещания : PAL
Цветовое пространство : YUV
Субдискретизация насыщенности : 4:2:0
Битовая глубина : 8 бит
Тип развёртки : Чересстрочная
Порядок развёртки : Верхнее поле первое
Метод сжатия : С потерями
Бит/(Пиксели*Кадры) : 0.513
Временной код первого кадра : 00:00:00:00
Оригинал временного кода : Group of pictures header
Размер потока : 3,36 Гбайт (94%)
Аудио
Идентификатор : 192 (0xC0)
Формат : MPEG Audio
Версия формата : Version 1
Профиль формата : Layer 2
Продолжительность : 1 ч. 30 м.
Вид битрейта : Постоянный
Битрейт : 256 Кбит/сек
Каналы : 2 канала
Частота : 48,0 КГц
Метод сжатия : С потерями
Задержка видео : 21 мс.
Размер потока : 166 Мбайт (4%)

Скриншот с названием постановки




Показать сообщения:    

Текущее время: 03-Дек 14:37

Часовой пояс: UTC + 3


Вы не можете начинать темы
Вы не можете отвечать на сообщения
Вы не можете редактировать свои сообщения
Вы не можете удалять свои сообщения
Вы не можете голосовать в опросах
Вы не можете прикреплять файлы к сообщениям
Вы не можете скачивать файлы