(Classical) The Essential Three Tenors (Verdi, Puccini, Leoncavallo, Flotow, Bizet, Чайковский, Donizetti, Wagner) - 1994, FLAC (tracks) lossless


 

[Цитировать]

The Essential 3 Tenors
Жанр: Classical
Страна-производитель диска: Germany
Год издания диска: 1994
Издатель (лейбл): BMG classics
Номер по каталогу: 74321 21273 2
Дата записи: 1972-1994
Аудиокодек: FLAC
Тип рипа: tracks
Битрейт аудио: lossless
Продолжительность: 01:05:24
Источник: собственный рип
Треклист:
01. Placido Domingo - Verdi- Aida - Se quel guerrier... Celeste Aida.
02. Luciano Pavarotti - Puccini- Turandot - Nessun Dorma.
03. Jose Carreras - Leoncavallo- Pagliacci - Recitar!... Vesti la guibba.
04. Placido Domingo - Flotow- Martha - M'appari tutt' amor.
05. Luciano Pavarotti - Verdi- Rigoletto - La donna e mobile.
06. Placido Domingo - Bizet- Carmen - Le fleur que tu m' avais jetee.
07. Luciano Pavarotti - Puccini- Tosca - Dammi i colori... Recondita armonia.
08. Placido Domingo - Tchaikovsky- Eugene Onegin - Kuda vy udallis (Lensky's Aria).
09. Jose Carreras - Sorozobal- La taberna del puerto.
10. Placido Domingo - Verdi- La forza del destino - Oh, che tu in seno angeli.
11. Luciano Pavarotti - Donizetti- L'elisir d'amore - Una furtiva lagrima.
12. Placido Domingo - Puccini- La Boheme - Che gelida manina.
13. Jose Carreras - Verdi- Otello - Niun mi tema.
14. Placido Domingo - Wagner- Lohengrin - In fernem Land.
15. Luciano Pavarotti - Puccini- Tosca - E lucevan le stelle.
16. The Three Tenors - Verdi- La Traviata - Libiamo ne ' lieti calici (Brindisi).

Исполнители:

1.
Plácido Domingo - Tenor (Vocal)
Erich Leinsdorf - Conductor
London Symphony Orchestra - Orchestra
2.
Luciano Pavarotti - Tenor (Vocal)
Gianfranco Masini - Conductor
Grudgionz Festival Orchestra - Orchestra
Festival Chorus of Grudgionz - Choir/Chorus
3.
José Carreras - Tenor (Vocal)
Luis A. Garcia Navarro - Conductor
Barcelona Symphony Orchestra - Orchestra
4.
Plácido Domingo - Tenor (Vocal)
Nello Santi - Conductor
London Symphony Orchestra - Orchestra
5.
Luciano Pavarotti - Tenor (Vocal)
Mário Rossi - Conductor
Turin Radio Symphony Orchestra - Orchestra
6.
Plácido Domingo - Tenor (Vocal)
Sherrill Milnes - Conductor
New Philharmonia Orchestra - Orchestra
7.
Luciano Pavarotti - Tenor (Vocal)
Daniel Oren - Conductor
Rome Opera Theater Orchestra - Orchestra
8.
Plácido Domingo - Tenor (Vocal)
Edward Downes - Conductor
Royal Philharmonic Orchestra - Orchestra
9.
José Carreras - Tenor (Vocal)
Enrique García Asensio - Conductor
Seville Symphony Orchestra - Orchestra
10.
Plácido Domingo - Tenor (Vocal)
James Levine - Conductor
London Symphony Orchestra - Orchestra
11.
Luciano Pavarotti - Tenor (Vocal)
Nino Bonavolontà - Conductor
Symphony Orchestra of Rome - Orchestra
12.
Plácido Domingo - Tenor (Vocal)
Georg Solti - Conductor
London Philharmonic Orchestra - Orchestra
13.
José Carreras - Tenor (Vocal)
Luis A. Garcia Navarro - Conductor
Barcelona Symphony Orchestra - Orchestra
14.
Plácido Domingo - Tenor (Vocal)
Edward Downes - Conductor
Royal Philharmonic Orchestra - Orchestra
15.
Luciano Pavarotti - Tenor (Vocal)
Daniel Oren - Conductor
Rome Opera Theater Orchestra - Orchestra
16.
The Three Tenors - Primary Artist
José Carreras - Tenor (Vocal)
Plácido Domingo - Tenor (Vocal)
Montserrat Caballé - Vocals
Giacomo Aragall - Vocals
Teresa Berganza - Vocals
Alfredo Kraus - Vocals
Pedro Lavirgen - Vocals
Pilar Lorengar - Vocals
Juan Pons - Vocals
Luis A. Garcia Navarro - Conductor
Seville Symphony Orchestra - Orchestra

Лог создания рипа

Exact Audio Copy V1.0 beta 3 from 29. August 2011
Отчёт EAC об извлечении, выполненном 24. сентября 2014, 23:21
The Three Tenors / The Essential 3 Tenors
Дисковод: MATSHITADVD-RAM UJ8E1 Adapter: 1 ID: 0
Режим чтения : Достоверность
Использование точного потока : Да
Отключение кэша аудио : Да
Использование указателей C2 : Нет
Коррекция смещения при чтении : 6
Способность читать области Lead-in и Lead-out : Нет
Заполнение пропущенных сэмплов тишиной : Да
Удаление блоков с тишиной в начале и конце : Нет
При вычислениях CRC использовались нулевые сэмплы : Да
Интерфейс : Встроенный Win32-интерфейс для Win NT/2000
Обработка зазоров : Исключено
Выходной формат : Пользовательский кодировщик
Выбранный битрейт : 768 kBit/s
Качество : Высокий
Добавление ID3-тега : Нет
Утилита сжатия : C:\Program Files\Exact Audio Copy\FLAC\FLAC.EXE
Дополнительные параметры : -V -8 -T "Genre=%genre%" -T "Artist=%artist%" -T "Title=%title%" -T "Album=%albumtitle%" -T "Date=%year%" -T "Tracknumber=%tracknr%" -T "Comment=%comment%" %source%
TOC извлечённого CD
Трек | Старт | Длительность | Начальный сектор | Конечный сектор
---------------------------------------------------------------------
1 | 0:00.00 | 4:33.63 | 0 | 20537
2 | 4:33.63 | 3:02.40 | 20538 | 34227
3 | 7:36.28 | 3:36.50 | 34228 | 50477
4 | 11:13.03 | 3:51.40 | 50478 | 67842
5 | 15:04.43 | 2:23.70 | 67843 | 78637
6 | 17:28.38 | 4:04.60 | 78638 | 96997
7 | 21:33.23 | 4:22.35 | 96998 | 116682
8 | 25:55.58 | 6:21.20 | 116683 | 145277
9 | 32:17.03 | 3:00.02 | 145278 | 158779
10 | 35:17.05 | 3:39.73 | 158780 | 175277
11 | 38:57.03 | 4:54.00 | 175278 | 197327
12 | 43:51.03 | 4:46.00 | 197328 | 218777
13 | 48:37.03 | 5:14.62 | 218778 | 242389
14 | 53:51.65 | 5:46.28 | 242390 | 268367
15 | 59:38.18 | 3:12.15 | 268368 | 282782
16 | 62:50.33 | 3:17.55 | 282783 | 297612
Трек 1
Имя файла D:\The Essential 3 Tenors\01. Plácido Domingo - Verdi- Aida - Se quel guerrier... Celeste Aida.wav
Длина предзазора 0:00:02.00
Пиковый уровень 100.0 %
Скорость извлечения 0.4 X
Качество трека 99.3 %
CRC теста 0001D30F
CRC копии 594AD8EC
Копирование... OK
Трек 2
Имя файла D:\The Essential 3 Tenors\02. Luciano Pavarotti - Puccini- Turandot - Nessun Dorma.wav
Длина предзазора 0:00:04.13
Пиковый уровень 99.6 %
Скорость извлечения 0.5 X
Качество трека 99.5 %
CRC теста 7621B36A
CRC копии 796BC815
Копирование... OK
Трек 3
Имя файла D:\The Essential 3 Tenors\03. José Carreras - Leoncavallo- Pagliacci - Recitar!... Vesti la guibba.wav
Длина предзазора 0:00:02.65
Пиковый уровень 100.0 %
Скорость извлечения 1.3 X
Качество трека 99.9 %
CRC теста 605D5D26
CRC копии 605D5D26
Копирование... OK
Трек 4
Имя файла D:\The Essential 3 Tenors\04. Plácido Domingo - Flotow- Martha - M'appari tutt' amor.wav
Длина предзазора 0:00:04.15
Пиковый уровень 100.0 %
Скорость извлечения 1.6 X
Качество трека 100.0 %
CRC теста 3B1C7ACA
CRC копии 3B1C7ACA
Копирование... OK
Трек 5
Имя файла D:\The Essential 3 Tenors\05. Luciano Pavarotti - Verdi- Rigoletto - La donna e mobile.wav
Длина предзазора 0:00:03.30
Пиковый уровень 77.1 %
Скорость извлечения 1.3 X
Качество трека 99.9 %
CRC теста 236B270D
CRC копии 236B270D
Копирование... OK
Трек 6
Имя файла D:\The Essential 3 Tenors\06. Plácido Domingo - Bizet- Carmen - Le fleur que tu m' avais jetee.wav
Длина предзазора 0:00:03.50
Пиковый уровень 94.2 %
Скорость извлечения 1.6 X
Качество трека 99.9 %
CRC теста F1A91053
CRC копии F1A91053
Копирование... OK
Трек 7
Имя файла D:\The Essential 3 Tenors\07. Luciano Pavarotti - Puccini- Tosca - Dammi i colori... Recondita armonia.wav
Длина предзазора 0:00:02.10
Пиковый уровень 99.3 %
Скорость извлечения 2.0 X
Качество трека 100.0 %
CRC теста 4C9A3336
CRC копии 4C9A3336
Копирование... OK
Трек 8
Имя файла D:\The Essential 3 Tenors\08. Plácido Domingo - Tchaikovsky- Eugene Onegin - Kuda vy udallis (Lensky's Aria).wav
Длина предзазора 0:00:03.08
Пиковый уровень 94.7 %
Скорость извлечения 2.2 X
Качество трека 100.0 %
CRC теста 18B5885C
CRC копии 18B5885C
Копирование... OK
Трек 9
Имя файла D:\The Essential 3 Tenors\09. José Carreras - Sorozobal- La taberna del puerto.wav
Длина предзазора 0:00:00.03
Пиковый уровень 100.0 %
Скорость извлечения 2.1 X
Качество трека 100.0 %
CRC теста 2BC78B57
CRC копии 2BC78B57
Копирование... OK
Трек 10
Имя файла D:\The Essential 3 Tenors\10. Plácido Domingo - Verdi- La forza del destino - Oh, che tu in seno angeli.wav
Длина предзазора 0:00:02.37
Пиковый уровень 100.0 %
Скорость извлечения 1.9 X
Качество трека 99.9 %
CRC теста 05D80D0A
CRC копии 05D80D0A
Копирование... OK
Трек 11
Имя файла D:\The Essential 3 Tenors\11. Luciano Pavarotti - Donizetti- L'elisir d'amore - Una furtiva lagrima.wav
Длина предзазора 0:00:03.15
Пиковый уровень 58.6 %
Скорость извлечения 2.4 X
Качество трека 100.0 %
CRC теста D9E974CE
CRC копии D9E974CE
Копирование... OK
Трек 12
Имя файла D:\The Essential 3 Tenors\12. Plácido Domingo - Puccini- La Boheme - Che gelida manina.wav
Длина предзазора 0:00:01.53
Пиковый уровень 100.0 %
Скорость извлечения 2.5 X
Качество трека 100.0 %
CRC теста E1382E99
CRC копии E1382E99
Копирование... OK
Трек 13
Имя файла D:\The Essential 3 Tenors\13. José Carreras - Verdi- Otello - Niun mi tema.wav
Длина предзазора 0:00:03.28
Пиковый уровень 100.0 %
Скорость извлечения 2.6 X
Качество трека 100.0 %
CRC теста 6916D034
CRC копии 6916D034
Копирование... OK
Трек 14
Имя файла D:\The Essential 3 Tenors\14. Plácido Domingo - Wagner- Lohengrin - In fernem Land.wav
Длина предзазора 0:00:03.02
Пиковый уровень 96.1 %
Скорость извлечения 2.7 X
Качество трека 100.0 %
CRC теста B40C089D
CRC копии B40C089D
Копирование... OK
Трек 15
Имя файла D:\The Essential 3 Tenors\15. Luciano Pavarotti - Puccini- Tosca - E lucevan le stelle.wav
Длина предзазора 0:00:03.18
Пиковый уровень 88.6 %
Скорость извлечения 2.6 X
Качество трека 100.0 %
CRC теста 1693E954
CRC копии 1693E954
Копирование... OK
Трек 16
Имя файла D:\The Essential 3 Tenors\16. The Three Tenors - Verdi- La Traviata - Libiamo ne ' lieti calici (Brindisi).wav
Длина предзазора 0:00:03.15
Пиковый уровень 93.5 %
Скорость извлечения 2.7 X
Качество трека 100.0 %
CRC теста 809B5EEA
CRC копии 809B5EEA
Копирование... OK
Ошибок не произошло
Конец отчёта
==== Контрольная сумма отчёта 14522D38961B2887846BDEFB262703F1870BB0DDAA4C4BCD107D5FB3938FD126 ====

CUE

REM DATE 1994
REM DISCID F00F8010
REM COMMENT "ExactAudioCopy v1.0b3"
PERFORMER "The Three Tenors"
TITLE "The Essential 3 Tenors"
FILE "01. Placido Domingo - Verdi- Aida - Se quel guerrier... Celeste Aida.wav" WAVE
TRACK 01 AUDIO
TITLE "Verdi: Aida - Se quel guerrier... Celeste Aida"
PERFORMER "Placido Domingo"
INDEX 01 00:00:00
FILE "02. Luciano Pavarotti - Puccini- Turandot - Nessun Dorma.wav" WAVE
TRACK 02 AUDIO
TITLE "Puccini: Turandot - Nessun Dorma"
PERFORMER "Luciano Pavarotti"
PREGAP 00:04:13
INDEX 01 00:00:00
FILE "03. Jose Carreras - Leoncavallo- Pagliacci - Recitar!... Vesti la guibba.wav" WAVE
TRACK 03 AUDIO
TITLE "Leoncavallo: Pagliacci - Recitar!... Vesti la guibba"
PERFORMER "Jose Carreras"
PREGAP 00:02:65
INDEX 01 00:00:00
FILE "04. Placido Domingo - Flotow- Martha - M'appari tutt' amor.wav" WAVE
TRACK 04 AUDIO
TITLE "Flotow: Martha - M'appari tutt' amor"
PERFORMER "Placido Domingo"
PREGAP 00:04:15
INDEX 01 00:00:00
FILE "05. Luciano Pavarotti - Verdi- Rigoletto - La donna e mobile.wav" WAVE
TRACK 05 AUDIO
TITLE "Verdi: Rigoletto - La donna e mobile"
PERFORMER "Luciano Pavarotti"
PREGAP 00:03:30
INDEX 01 00:00:00
FILE "06. Placido Domingo - Bizet- Carmen - Le fleur que tu m' avais jetee.wav" WAVE
TRACK 06 AUDIO
TITLE "Bizet: Carmen - Le fleur que tu m' avais jetee"
PERFORMER "Placido Domingo"
PREGAP 00:03:50
INDEX 01 00:00:00
FILE "07. Luciano Pavarotti - Puccini- Tosca - Dammi i colori... Recondita armonia.wav" WAVE
TRACK 07 AUDIO
TITLE "Puccini: Tosca - Dammi i colori... Recondita armonia"
PERFORMER "Luciano Pavarotti"
PREGAP 00:02:10
INDEX 01 00:00:00
FILE "08. Placido Domingo - Tchaikovsky- Eugene Onegin - Kuda vy udallis (Lensky's Aria).wav" WAVE
TRACK 08 AUDIO
TITLE "Tchaikovsky: Eugene Onegin - Kuda vy udallis (Lensky's Aria)"
PERFORMER "Placido Domingo"
PREGAP 00:03:08
INDEX 01 00:00:00
FILE "09. Jose Carreras - Sorozobal- La taberna del puerto.wav" WAVE
TRACK 09 AUDIO
TITLE "Sorozobal: La taberna del puerto"
PERFORMER "Jose Carreras"
PREGAP 00:00:03
INDEX 01 00:00:00
FILE "10. Placido Domingo - Verdi- La forza del destino - Oh, che tu in seno angeli.wav" WAVE
TRACK 10 AUDIO
TITLE "Verdi: La forza del destino - Oh, che tu in seno angeli"
PERFORMER "Placido Domingo"
PREGAP 00:02:37
INDEX 01 00:00:00
FILE "11. Luciano Pavarotti - Donizetti- L'elisir d'amore - Una furtiva lagrima.wav" WAVE
TRACK 11 AUDIO
TITLE "Donizetti: L'elisir d'amore - Una furtiva lagrima"
PERFORMER "Luciano Pavarotti"
PREGAP 00:03:15
INDEX 01 00:00:00
FILE "12. Placido Domingo - Puccini- La Boheme - Che gelida manina.wav" WAVE
TRACK 12 AUDIO
TITLE "Puccini: La Boheme - Che gelida manina"
PERFORMER "Placido Domingo"
PREGAP 00:01:53
INDEX 01 00:00:00
FILE "13. Jose Carreras - Verdi- Otello - Niun mi tema.wav" WAVE
TRACK 13 AUDIO
TITLE "Verdi: Otello - Niun mi tema"
PERFORMER "Jose Carreras"
PREGAP 00:03:28
INDEX 01 00:00:00
FILE "14. Placido Domingo - Wagner- Lohengrin - In fernem Land.wav" WAVE
TRACK 14 AUDIO
TITLE "Wagner: Lohengrin - In fernem Land"
PERFORMER "Placido Domingo"
PREGAP 00:03:02
INDEX 01 00:00:00
FILE "15. Luciano Pavarotti - Puccini- Tosca - E lucevan le stelle.wav" WAVE
TRACK 15 AUDIO
TITLE "Puccini: Tosca - E lucevan le stelle"
PERFORMER "Luciano Pavarotti"
PREGAP 00:03:18
INDEX 01 00:00:00
FILE "16. The Three Tenors - Verdi- La Traviata - Libiamo ne ' lieti calici (Brindisi).wav" WAVE
TRACK 16 AUDIO
TITLE "Verdi: La Traviata - Libiamo ne ' lieti calici (Brindisi)"
PERFORMER "The Three Tenors"
PREGAP 00:03:15
INDEX 01 00:00:00



Показать сообщения:    

Текущее время: 08-Дек 09:04

Часовой пояс: UTC + 3


Вы не можете начинать темы
Вы не можете отвечать на сообщения
Вы не можете редактировать свои сообщения
Вы не можете удалять свои сообщения
Вы не можете голосовать в опросах
Вы не можете прикреплять файлы к сообщениям
Вы не можете скачивать файлы