(Classical) Josef Myslivecek - La Passione di Nostro Signore Gesu Cristo - Kartauser, Waschinski, Berg, Karasiak; Chorus Musicus Koln, Das Neue Orchester, Christoph Spering - 2CD - 2005, FLAC (image+.cue) lossless


Статистика раздачи [Обновить пиров]
Размер:  449 MB   |    Зарегистрирован:  8 месяцев 18 дней   |    Скачан:  0 раз

Полного источника не было: Никогда

Личеров:  3  [  0 KB/s  ]   Подробная статистика пиров
 
   
 
 
 

[Цитировать]

Josef Mysliveček - La Passione di Nostro Signore Gesu Cristo - Kartäuser, Waschinski, Berg, Karasiak; Chorus Musicus Köln, Das Neue Orchester, Christoph Spering
Жанр: Classical
Страна-производитель диска: Germany
Год издания диска: 2005
Издатель (лейбл): Capriccio
Дата записи: 2004
Аудиокодек: FLAC
Тип рипа: image+.cue
Битрейт аудио: lossless
Продолжительность: 103:23
Источник: собственный рип
Наличие сканов в содержимом раздачи: да
Треклист:
Josef Mysliveček (1737-1781)
La Passione di Nostro Signore Gesu Cristo
Componimento sacro
Libretto di Pietro Metastasio
CD1
[1]-[19] Parte Prima
CD2
[1]-[14] Parte Seconda
Исполнители:
Maddalena Sophie Kartäuser soprano
Pietro Jörg Waschinski soprano
Giovanni Yvonne Berg contralto
Giuseppe d'Arimatea Andreas Karasiak tenor
Chorus Musicus Köln
Das Neue Orchester
Christoph Spering

Лог создания рипа: CD1

Exact Audio Copy V1.0 beta 3 from 29. August 2011
EAC extraction logfile from 31. July 2014, 1:52
Das Neue Orchester, Chorus Musicus Köln, Christoph Spering / Myslivecek - La Passione di Nostro Signore Gesu Cristo - Parte Prima
Used drive : HL-DT-STDVDRAM GU70N Adapter: 0 ID: 0
Read mode : Secure
Utilize accurate stream : Yes
Defeat audio cache : Yes
Make use of C2 pointers : No
Read offset correction : 48
Overread into Lead-In and Lead-Out : No
Fill up missing offset samples with silence : Yes
Delete leading and trailing silent blocks : No
Null samples used in CRC calculations : Yes
Used interface : Native Win32 interface for Win NT & 2000
Used output format : User Defined Encoder
Selected bitrate : 128 kBit/s
Quality : High
Add ID3 tag : No
Command line compressor : C:\Program Files (x86)\Exact Audio Copy\Flac\flac.exe
Additional command line options : -V -8 -T "Date=%year%" -T "Genre=%genre%" %source%
TOC of the extracted CD
Track | Start | Length | Start sector | End sector
---------------------------------------------------------
1 | 0:00.00 | 1:18.01 | 0 | 5850
2 | 1:18.01 | 2:47.36 | 5851 | 18411
3 | 4:05.37 | 2:45.74 | 18412 | 30860
4 | 6:51.36 | 6:12.63 | 30861 | 58823
5 | 13:04.24 | 0:27.37 | 58824 | 60885
6 | 13:31.61 | 1:59.13 | 60886 | 69823
7 | 15:30.74 | 0:51.51 | 69824 | 73699
8 | 16:22.50 | 7:44.17 | 73700 | 108516
9 | 24:06.67 | 1:23.72 | 108517 | 114813
10 | 25:30.64 | 5:02.29 | 114814 | 137492
11 | 30:33.18 | 1:10.65 | 137493 | 142807
12 | 31:44.08 | 3:25.30 | 142808 | 158212
13 | 35:09.38 | 0:57.24 | 158213 | 162511
14 | 36:06.62 | 2:40.61 | 162512 | 174572
15 | 38:47.48 | 1:15.38 | 174573 | 180235
16 | 40:03.11 | 6:56.39 | 180236 | 211474
17 | 46:59.50 | 1:17.58 | 211475 | 217307
18 | 48:17.33 | 6:49.64 | 217308 | 248046
19 | 55:07.22 | 4:01.38 | 248047 | 266159
Range status and errors
Selected range
Filename C:\temp\Myslivecek - La Passione di Nostro Signore Gesu Cristo\Myslivecek - La Passione di Nostro Signore Gesu Cristo - CD1.wav
Peak level 87.1 %
Extraction speed 5.1 X
Range quality 100.0 %
Test CRC 6AD3BF88
Copy CRC 6AD3BF88
Copy OK
No errors occurred
AccurateRip summary
Track 1 accurately ripped (confidence 3) [EE14D933] (AR v2)
Track 2 accurately ripped (confidence 3) [FB3A731B] (AR v2)
Track 3 accurately ripped (confidence 3) [27BF08D5] (AR v2)
Track 4 accurately ripped (confidence 3) [E9144034] (AR v2)
Track 5 accurately ripped (confidence 3) [D00F620F] (AR v2)
Track 6 accurately ripped (confidence 3) [2DD2328B] (AR v2)
Track 7 accurately ripped (confidence 3) [A26AECD4] (AR v2)
Track 8 accurately ripped (confidence 3) [C883DC7F] (AR v2)
Track 9 accurately ripped (confidence 3) [259EDC39] (AR v2)
Track 10 accurately ripped (confidence 3) [775D5829] (AR v2)
Track 11 accurately ripped (confidence 3) [372C4480] (AR v2)
Track 12 accurately ripped (confidence 3) [7E2850A2] (AR v2)
Track 13 accurately ripped (confidence 3) [82E2C40D] (AR v2)
Track 14 accurately ripped (confidence 3) [52C49520] (AR v2)
Track 15 accurately ripped (confidence 3) [4447252A] (AR v2)
Track 16 accurately ripped (confidence 3) [ADAB4FFE] (AR v2)
Track 17 accurately ripped (confidence 3) [0A107D1F] (AR v2)
Track 18 accurately ripped (confidence 3) [B20E6B29] (AR v2)
Track 19 accurately ripped (confidence 3) [2F8F013B] (AR v2)
All tracks accurately ripped
End of status report
==== Log checksum 6A1E2FCF40E730DCD5DFCF903808D73915E01C3EE1C64CE934891E004794E5AA ====

Лог создания рипа: CD2

Exact Audio Copy V1.0 beta 3 from 29. August 2011
EAC extraction logfile from 31. July 2014, 21:33
Das Neue Orchester, Chorus Musicus Köln, Christoph Spering / Myslivecek - La Passione di Nostro Signore Gesu Cristo - Parte Seconda
Used drive : HL-DT-STDVDRAM GU70N Adapter: 0 ID: 0
Read mode : Secure
Utilize accurate stream : Yes
Defeat audio cache : Yes
Make use of C2 pointers : No
Read offset correction : 48
Overread into Lead-In and Lead-Out : No
Fill up missing offset samples with silence : Yes
Delete leading and trailing silent blocks : No
Null samples used in CRC calculations : Yes
Used interface : Native Win32 interface for Win NT & 2000
Used output format : User Defined Encoder
Selected bitrate : 128 kBit/s
Quality : High
Add ID3 tag : No
Command line compressor : C:\Program Files (x86)\Exact Audio Copy\Flac\flac.exe
Additional command line options : -V -8 -T "Date=%year%" -T "Genre=%genre%" %source%
TOC of the extracted CD
Track | Start | Length | Start sector | End sector
---------------------------------------------------------
1 | 0:00.00 | 1:08.56 | 0 | 5155
2 | 1:08.56 | 5:51.62 | 5156 | 31542
3 | 7:00.43 | 2:04.14 | 31543 | 40856
4 | 9:04.57 | 5:09.71 | 40857 | 64102
5 | 14:14.53 | 1:31.40 | 64103 | 70967
6 | 15:46.18 | 4:01.34 | 70968 | 89076
7 | 19:47.52 | 1:21.64 | 89077 | 95215
8 | 21:09.41 | 2:19.62 | 95216 | 105702
9 | 23:29.28 | 1:05.41 | 105703 | 110618
10 | 24:34.69 | 9:01.45 | 110619 | 151238
11 | 33:36.39 | 1:59.59 | 151239 | 160222
12 | 35:36.23 | 3:00.17 | 160223 | 173739
13 | 38:36.40 | 0:54.31 | 173740 | 177820
14 | 39:30.71 | 3:43.69 | 177821 | 194614
Range status and errors
Selected range
Filename C:\temp\Myslivecek - La Passione di Nostro Signore Gesu Cristo\Myslivecek - La Passione di Nostro Signore Gesu Cristo - CD2.wav
Peak level 85.9 %
Extraction speed 4.7 X
Range quality 100.0 %
Test CRC 66505880
Copy CRC 66505880
Copy OK
No errors occurred
AccurateRip summary
Track 1 accurately ripped (confidence 3) [022E99A6] (AR v2)
Track 2 accurately ripped (confidence 3) [E5A8427F] (AR v2)
Track 3 accurately ripped (confidence 3) [E7F51ACC] (AR v2)
Track 4 accurately ripped (confidence 3) [BCBB6B0F] (AR v2)
Track 5 accurately ripped (confidence 3) [C8ABAC26] (AR v2)
Track 6 accurately ripped (confidence 3) [02BC1D30] (AR v2)
Track 7 accurately ripped (confidence 3) [0FB897B6] (AR v2)
Track 8 accurately ripped (confidence 3) [4ED781C7] (AR v2)
Track 9 accurately ripped (confidence 3) [809032E3] (AR v2)
Track 10 accurately ripped (confidence 3) [22639F1D] (AR v2)
Track 11 accurately ripped (confidence 3) [78F32A79] (AR v2)
Track 12 accurately ripped (confidence 3) [26F0183B] (AR v2)
Track 13 accurately ripped (confidence 3) [2AFE8F14] (AR v2)
Track 14 accurately ripped (confidence 3) [460687DE] (AR v2)
All tracks accurately ripped
End of status report
==== Log checksum 4CF2B53C3B04CEBE2F6CC9450CE3D1EECB0F3D6961F9843CF305AC4D21B3A6A9 ====
[teatrix.ru].t19122.torrent 
Торрент: Зарегистрирован [ 2016-03-18 12:56 ] · 0B55BB8389CEBF2E74EE1F8129C49EE491BD30E0

Скачать .torrent

Скачать

39 KB

Статус: проверено
Скачан: 0 раз
Размер: 449 MB
terms.php



Быстрый ответ

Имя:

      
Для отправки сообщений необходимо включить JavaScript
Показать сообщения:    

Текущее время: 05-Дек 23:32

Часовой пояс: UTC + 3


Вы можете начинать темы
Вы можете отвечать на сообщения
Вы не можете редактировать свои сообщения
Вы не можете удалять свои сообщения
Вы не можете голосовать в опросах
Вы не можете прикреплять файлы к сообщениям
Вы можете скачивать файлы