(Choral) Johann Sebastian Bach- Matthaus-Passion [Matthäuspassion/ St. Matthew Passion] ( (Meel, Sigmundsson, Bostridge, Orchestra of the 18th Century, Frans Bruggen) - 2002, FLAC (image+.cue) lossless


Статистика раздачи [Обновить пиров]
Размер:  666 MB   |    Зарегистрирован:  10 месяцев 1 день   |    Скачан:  0 раз

Полного источника не было: Никогда

Личеров:  3  [  0 KB/s  ]   Подробная статистика пиров
 
   
 
 
 

[Цитировать]

Johann Sebastian Bach- Matthäus-Passion, BWV 244Orchestra of the 18th Century, Frans Brüggen Жанр: Choral
Страна-производитель диска: Germany
Год издания диска: 2002
Издатель (лейбл): Philips
Номер по каталогу: 473 263-2
Дата записи: 1996
Аудиокодек: FLAC
Тип рипа: image+.cue
Битрейт аудио: lossless
Продолжительность: 2:40:14
Источник: собственный рип
Наличие сканов в содержимом раздачи: да
Исполнители:
Tenor [Evangelist]: Nico van der Meel
Bass [Jesus]: Kristinn Sigmundsson
Sopranos: Maria Cristina Kiehr, Mona Julsrud
Contraltos: Claudia Schubert, Wilke te Brummelstroete
Tenors: Ian Bostridge, Toby Spence
Basses: Peter Kooy, Harry van der Kamp
Soprano [Uxor Pilati]: Tannie Willemstijn
Soprano [Ancilla I]: Adinda de Nijs
Contralto [Testis I]: Kathrin Pfeiffer
Contralto [Ancilla II]: Ananda Goud
Tenor [Testis II]: Bruce Sellers
Bass [Pilatus]: Jelle Draijer
Bass [Petrus]: Kees Jan de Koning
Bass [Judas]: Lodewijk Meeuwsen
Bass [Pontifex I]: David Barick
Bass [Pontifex II]: Hans Pootjes
Boys’ Choir of St Bavo’s Cathedral, Haarlem (Chorus Master: Fons Ziekman) & Nederlands Kamerkoor (Chorus Master: Klaas Stok)
Orchestra of the 18th Century
Frans Brüggen
- condutor

Треклист

CD 1
1 1. Part 1. Chorus. Kommt, ihr Töchter, helft mir klagen 7:35
2 2. Da Jesus diese Rede vollendet hatte 0:38
3 3. Chorus. Herzliebster Jesu, was hast du verbrochen 0:40
4 4. Da versammelten sich die Hohenpriester 2:55
5 5. Recitativo. Du lieber Heiland du 0:53
6 6. Aria. Buß und Reu 4:26
7 7. Da ging hin der Zwölfen einer 0:39
8 8. Aria. Blute nur, du liebes Herz 4:22
9 9. Aber am ersten Tage der süßen Brot 2:04
10 10. Chorus. Ich bin's, ich sollte büßen 0:45
11 11. Er antwortete und sprach 2:53
12 12. Recitativo. Wiewohl mein Herz in Tränen schwimmt 1:21
13 13. Aria. Ich will dir mein Herze schenken 3:43
14 14. Und da sie den Lobgesang gesprochen hatten 1:05
15 15. Chorus. Erkenne mich, mein Hüter 0:57
16 16. Petrus aber antwortete und sprach zu ihm 0:55
17 17. Chorus. Ich will hier bei dir stehen 0:59
18 18. Da kam Jesus mit ihnen zu einem Hofe 1:39
19 19. Recitativo. O Schmerz 1:36
20 20. Aria. Ich will bei meinem Jesu wachen 5:02
21 21. Und ging hin ein wenig 0:44
22 22. Recitativo. Der Heiland fällt vor seinem Vater nieder 1:00
23 23. Aria. Gerne will ich mich bequemen 4:10
24 24. Und er kam zu seinen Jüngern 1:14
25 25. Chorus: Was mein Gott will, das g'scheh allzeit 1:01
26 26. Und er kam und fand sie aber schlafend 2:20
27 27. Aria. So ist mein Jesus nun gefangen 4:42
28 28. Und siehe, einer aus denen 1:56
29 29. Chorus: O Mensch, bewein dein' Sünde groß 5:06
CD 2
1 30. Part 2. Aria. Ach, nun ist mein Jesu hin 3:43
2 31. Die aber Jesum gegriffen hatten 1:00
3 32. Chorus. Mir hat die Welt trüglich gericht 0:39
4 33. Und wiewohl viel falsche Zeugen 1:09
5 34. Recitativo. Mein Jesus schweigt zu falschen Lügen stille 1:00
6 35. Aria. Geduld 3:56
7 36. Und der Hohepriester antwortete 1:58
8 37. Chorus: Wer hat dich so geschlagen 0:47
9 38. Petrus aber saß draußen im Palast 2:14
10 39. Aria. Erbarme dich 7:07
11 40. Chorus. Bin ich gleich von dir gewichen 1:00
12 41. Des Morgens aber hielten... 1:45
13 42. Aria. Gebt mir meinen Jesum wieder 2:55
14 43. Sie hielten aber einen Rat 2:04
15 44. Chorus. Befiehl du deine Wege 0:58
16 45. Auf das Fest... 2:25
17 46. Chorus. Wie wunderbarlich ist doch diese Strafe 0:41
18 47. Der Landpfleger sagte 0:14
19 48. Recitativo. Er hat uns allen wolhgetan 1:17
20 49. Aria. Aus Liebe will mein Heiland sterben 4:46
21 50. Sie schrieen aber noch mehr 1:50
22 51. Recitativo. Erbarm es Gott 1:02
23 52. Aria. Können Tränen meiner Wangen 5:30
CD 3
1 53. Da nahmen die Kriegsknechte 1:09
2 54. Chorus. O Haupt voll Blut und Wunden 1:59
3 55. Und da sie ihn verspottet hatten 0:57
4 56. Recitativo. Ja freilich will in uns das Fleisch und Blut 0:42
5 57. Aria. Komm, süßes Kreuz, so will ich sagen 5:51
6 58. Und da sie an die Stätte kamen 3:21
7 59. Recitativo. Ach Golgatha 1:35
8 60. Aria. Sehet, Jesus hat die Hand 3:07
9 61. Und von der sechsten Stunde an 2:23
10 62. Chorus. Wenn ich einmal soll scheiden 1:08
11 63. Und siehe da 2:37
12 64. Recitativo. Am Abend, da es kühle war 2:03
13 65. Aria. Mache dich, mein Herze, rein 5:57
14 66. Und Joseph nahm de Leib 2:30
15 67. Recitativo. Nun ist der Herr 2:17
16 68. Chorus. Wir setzen uns mit Tränen nieder 4:55

Лог создания рипа

Лог создания рипа CD1

Exact Audio Copy V1.0 beta 3 from 29. August 2011
EAC extraction logfile from 15. September 2014, 13:15
Frans Brüggen / Bach: Matthäus-Passion, BWV 244 Disc 1 of 3
Used drive : TSSTcorp CDDVDW Adapter: 0 ID: 0
Read mode : Secure
Utilize accurate stream : Yes
Defeat audio cache : Yes
Make use of C2 pointers : No
Read offset correction : 6
Overread into Lead-In and Lead-Out : No
Fill up missing offset samples with silence : Yes
Delete leading and trailing silent blocks : No
Null samples used in CRC calculations : Yes
Used interface : Installed external ASPI interface
Used output format : User Defined Encoder
Selected bitrate : 768 kBit/s
Quality : High
Add ID3 tag : No
Command line compressor : C:\Program Files (x86)\Exact Audio Copy\FLAC\FLAC.EXE
Additional command line options : -6 -V -T "ARTIST=%artist%" -T "TITLE=%title%" -T "ALBUM=%albumtitle%" -T "DATE=%year%" -T "TRACKNUMBER=%tracknr%" -T "GENRE=%genre%" -T "COMMENT=%comment%" -T "BAND=%albuminterpret%" -T "ALBUMARTIST=%albuminterpret%" -T "COMPOSER=%composer%" %haslyrics%--tag-from-file=LYRICS="%lyricsfile%"%haslyrics% -T "DISCNUMBER=%cdnumber%" -T "TOTALDISCS=%totalcds%" -T "TOTALTRACKS=%numtracks%" %hascover%--picture="%coverfile%"%hascover% %source% -o %dest%
TOC of the extracted CD
Track | Start | Length | Start sector | End sector
---------------------------------------------------------
1 | 0:00.32 | 7:35.00 | 32 | 34156
2 | 7:35.32 | 0:38.00 | 34157 | 37006
3 | 8:13.32 | 0:40.00 | 37007 | 40006
4 | 8:53.32 | 2:55.00 | 40007 | 53131
5 | 11:48.32 | 0:53.50 | 53132 | 57156
6 | 12:42.07 | 4:26.25 | 57157 | 77131
7 | 17:08.32 | 0:39.63 | 77132 | 80119
8 | 17:48.20 | 4:22.12 | 80120 | 99781
9 | 22:10.32 | 2:04.13 | 99782 | 109094
10 | 24:14.45 | 0:45.25 | 109095 | 112494
11 | 24:59.70 | 2:53.37 | 112495 | 125506
12 | 27:53.32 | 1:21.38 | 125507 | 131619
13 | 29:14.70 | 3:43.37 | 131620 | 148381
14 | 32:58.32 | 1:05.00 | 148382 | 153256
15 | 34:03.32 | 0:57.50 | 153257 | 157581
16 | 35:01.07 | 0:55.63 | 157582 | 161769
17 | 35:56.70 | 0:59.12 | 161770 | 166206
18 | 36:56.07 | 1:39.25 | 166207 | 173656
19 | 38:35.32 | 1:36.00 | 173657 | 180856
20 | 40:11.32 | 5:02.00 | 180857 | 203506
21 | 45:13.32 | 0:44.00 | 203507 | 206806
22 | 45:57.32 | 1:00.00 | 206807 | 211306
23 | 46:57.32 | 4:10.50 | 211307 | 230106
24 | 51:08.07 | 1:14.00 | 230107 | 235656
25 | 52:22.07 | 1:01.25 | 235657 | 240256
26 | 53:23.32 | 2:20.00 | 240257 | 250756
27 | 55:43.32 | 4:42.38 | 250757 | 271944
28 | 60:25.70 | 1:56.37 | 271945 | 280681
29 | 62:22.32 | 5:07.00 | 280682 | 303706
Range status and errors
Selected range
Filename C:\RIP\Bach- Matthaus-Passion (Bruggen) CD1.wav
Peak level 97.3 %
Extraction speed 3.0 X
Range quality 99.9 %
Test CRC D0B6BE6A
Copy CRC D0B6BE6A
Copy OK
No errors occurred
AccurateRip summary
Track 1 accurately ripped (confidence 8) [CBEED95C] (AR v1)
Track 2 accurately ripped (confidence 8) [9E20F789] (AR v1)
Track 3 accurately ripped (confidence 8) [A120D738] (AR v1)
Track 4 accurately ripped (confidence 8) [6FB21639] (AR v1)
Track 5 accurately ripped (confidence 8) [206F0C9F] (AR v1)
Track 6 accurately ripped (confidence 8) [34400B84] (AR v1)
Track 7 accurately ripped (confidence 8) [DC68060E] (AR v1)
Track 8 accurately ripped (confidence 8) [3CA177E1] (AR v1)
Track 9 accurately ripped (confidence 8) [F28C4F9F] (AR v1)
Track 10 accurately ripped (confidence 8) [237BF080] (AR v1)
Track 11 accurately ripped (confidence 8) [7D0987E2] (AR v1)
Track 12 accurately ripped (confidence 8) [5A1E4248] (AR v1)
Track 13 accurately ripped (confidence 8) [6B25B8E2] (AR v1)
Track 14 accurately ripped (confidence 8) [D1151D8B] (AR v1)
Track 15 accurately ripped (confidence 8) [BD7534AB] (AR v1)
Track 16 accurately ripped (confidence 8) [BA219340] (AR v1)
Track 17 accurately ripped (confidence 8) [CCB5260D] (AR v1)
Track 18 accurately ripped (confidence 8) [A2EF0A27] (AR v1)
Track 19 accurately ripped (confidence 8) [3D46AEAC] (AR v1)
Track 20 accurately ripped (confidence 8) [55415AE4] (AR v1)
Track 21 accurately ripped (confidence 8) [DF132AA1] (AR v1)
Track 22 accurately ripped (confidence 8) [EC94ECE7] (AR v1)
Track 23 accurately ripped (confidence 8) [20AC4755] (AR v1)
Track 24 accurately ripped (confidence 8) [068A1D8E] (AR v1)
Track 25 accurately ripped (confidence 8) [91C46A80] (AR v1)
Track 26 accurately ripped (confidence 8) [ACC19271] (AR v1)
Track 27 accurately ripped (confidence 8) [22150D0D] (AR v1)
Track 28 accurately ripped (confidence 8) [DF2BF446] (AR v1)
Track 29 accurately ripped (confidence 8) [3E6B8615] (AR v1)
All tracks accurately ripped
End of status report
==== Log checksum 36D110BE6AC4FAA54C8504002DD54AAB42A50341028ED5F104510BFA0E009D2D ====

Лог создания рипа CD2

Exact Audio Copy V1.0 beta 3 from 29. August 2011
EAC extraction logfile from 15. September 2014, 14:14
Frans Brüggen / Bach- Matthaus-Passion, BWV 244 (Brüggen - 1996) Disc 2 of 3
Used drive : TSSTcorp CDDVDW Adapter: 0 ID: 0
Read mode : Secure
Utilize accurate stream : Yes
Defeat audio cache : Yes
Make use of C2 pointers : No
Read offset correction : 6
Overread into Lead-In and Lead-Out : No
Fill up missing offset samples with silence : Yes
Delete leading and trailing silent blocks : No
Null samples used in CRC calculations : Yes
Used interface : Installed external ASPI interface
Used output format : User Defined Encoder
Selected bitrate : 768 kBit/s
Quality : High
Add ID3 tag : No
Command line compressor : C:\Program Files (x86)\Exact Audio Copy\FLAC\FLAC.EXE
Additional command line options : -6 -V -T "ARTIST=%artist%" -T "TITLE=%title%" -T "ALBUM=%albumtitle%" -T "DATE=%year%" -T "TRACKNUMBER=%tracknr%" -T "GENRE=%genre%" -T "COMMENT=%comment%" -T "BAND=%albuminterpret%" -T "ALBUMARTIST=%albuminterpret%" -T "COMPOSER=%composer%" %haslyrics%--tag-from-file=LYRICS="%lyricsfile%"%haslyrics% -T "DISCNUMBER=%cdnumber%" -T "TOTALDISCS=%totalcds%" -T "TOTALTRACKS=%numtracks%" %hascover%--picture="%coverfile%"%hascover% %source% -o %dest%
TOC of the extracted CD
Track | Start | Length | Start sector | End sector
---------------------------------------------------------
1 | 0:00.32 | 3:43.00 | 32 | 16756
2 | 3:43.32 | 1:00.50 | 16757 | 21306
3 | 4:44.07 | 0:39.13 | 21307 | 24244
4 | 5:23.20 | 1:09.12 | 24245 | 29431
5 | 6:32.32 | 1:00.50 | 29432 | 33981
6 | 7:33.07 | 3:56.63 | 33982 | 51744
7 | 11:29.70 | 1:58.62 | 51745 | 60656
8 | 13:28.57 | 0:47.00 | 60657 | 64181
9 | 14:15.57 | 2:14.50 | 64182 | 74281
10 | 16:30.32 | 7:07.38 | 74282 | 106344
11 | 23:37.70 | 1:00.00 | 106345 | 110844
12 | 24:37.70 | 1:45.37 | 110845 | 118756
13 | 26:23.32 | 2:55.38 | 118757 | 131919
14 | 29:18.70 | 2:04.37 | 131920 | 141256
15 | 31:23.32 | 0:58.00 | 141257 | 145606
16 | 32:21.32 | 2:25.00 | 145607 | 156481
17 | 34:46.32 | 0:41.00 | 156482 | 159556
18 | 35:27.32 | 0:14.25 | 159557 | 160631
19 | 35:41.57 | 1:17.38 | 160632 | 166444
20 | 36:59.20 | 4:46.12 | 166445 | 187906
21 | 41:45.32 | 1:50.63 | 187907 | 196219
22 | 43:36.20 | 1:02.12 | 196220 | 200881
23 | 44:38.32 | 5:31.00 | 200882 | 225706
Range status and errors
Selected range
Filename C:\RIP\Bach- Matthaus-Passion (Bruggen) CD2.wav
Peak level 96.9 %
Extraction speed 2.8 X
Range quality 100.0 %
Test CRC E8E5FF56
Copy CRC E8E5FF56
Copy OK
No errors occurred
AccurateRip summary
Track 1 accurately ripped (confidence 8) [9F4FD2DF] (AR v1)
Track 2 accurately ripped (confidence 8) [0BCB1191] (AR v1)
Track 3 accurately ripped (confidence 8) [389BB996] (AR v1)
Track 4 accurately ripped (confidence 8) [256DD47B] (AR v1)
Track 5 accurately ripped (confidence 8) [C63803EE] (AR v1)
Track 6 accurately ripped (confidence 8) [0E20DC5F] (AR v1)
Track 7 accurately ripped (confidence 8) [42830884] (AR v1)
Track 8 accurately ripped (confidence 8) [7B46D3EE] (AR v1)
Track 9 accurately ripped (confidence 8) [A4A86B5A] (AR v1)
Track 10 accurately ripped (confidence 8) [5E2E0B83] (AR v1)
Track 11 accurately ripped (confidence 8) [4BBFA0A1] (AR v1)
Track 12 accurately ripped (confidence 8) [E7C19283] (AR v1)
Track 13 accurately ripped (confidence 8) [471839E2] (AR v1)
Track 14 accurately ripped (confidence 7) [39185D44] (AR v1)
Track 15 accurately ripped (confidence 8) [0FAA03E8] (AR v1)
Track 16 accurately ripped (confidence 8) [82D48D53] (AR v1)
Track 17 accurately ripped (confidence 8) [F04C3556] (AR v1)
Track 18 accurately ripped (confidence 8) [8588E840] (AR v1)
Track 19 accurately ripped (confidence 8) [99BA72DE] (AR v1)
Track 20 accurately ripped (confidence 8) [9F951961] (AR v1)
Track 21 accurately ripped (confidence 8) [AC851045] (AR v1)
Track 22 accurately ripped (confidence 8) [DB9FB108] (AR v1)
Track 23 accurately ripped (confidence 8) [69FA165E] (AR v1)
All tracks accurately ripped
End of status report
==== Log checksum 3836615E1CB6B62CAEBAC113A95934A865E25DC44C4F4BB77C7591DC83167073 ====

Лог создания рипа CD3

Exact Audio Copy V1.0 beta 3 from 29. August 2011
EAC extraction logfile from 15. September 2014, 14:50
Frans Brüggen / Bach- Matthäus-Passion, BWV 244 (Brüggen - 1996) Disc 3 of 3
Used drive : TSSTcorp CDDVDW Adapter: 0 ID: 0
Read mode : Secure
Utilize accurate stream : Yes
Defeat audio cache : Yes
Make use of C2 pointers : No
Read offset correction : 6
Overread into Lead-In and Lead-Out : No
Fill up missing offset samples with silence : Yes
Delete leading and trailing silent blocks : No
Null samples used in CRC calculations : Yes
Used interface : Installed external ASPI interface
Used output format : User Defined Encoder
Selected bitrate : 768 kBit/s
Quality : High
Add ID3 tag : No
Command line compressor : C:\Program Files (x86)\Exact Audio Copy\FLAC\FLAC.EXE
Additional command line options : -6 -V -T "ARTIST=%artist%" -T "TITLE=%title%" -T "ALBUM=%albumtitle%" -T "DATE=%year%" -T "TRACKNUMBER=%tracknr%" -T "GENRE=%genre%" -T "COMMENT=%comment%" -T "BAND=%albuminterpret%" -T "ALBUMARTIST=%albuminterpret%" -T "COMPOSER=%composer%" %haslyrics%--tag-from-file=LYRICS="%lyricsfile%"%haslyrics% -T "DISCNUMBER=%cdnumber%" -T "TOTALDISCS=%totalcds%" -T "TOTALTRACKS=%numtracks%" %hascover%--picture="%coverfile%"%hascover% %source% -o %dest%
TOC of the extracted CD
Track | Start | Length | Start sector | End sector
---------------------------------------------------------
1 | 0:00.32 | 1:09.25 | 32 | 5231
2 | 1:09.57 | 1:59.50 | 5232 | 14206
3 | 3:09.32 | 0:57.50 | 14207 | 18531
4 | 4:07.07 | 0:42.50 | 18532 | 21731
5 | 4:49.57 | 5:51.00 | 21732 | 48056
6 | 10:40.57 | 3:21.00 | 48057 | 63131
7 | 14:01.57 | 1:35.38 | 63132 | 70294
8 | 15:37.20 | 3:07.12 | 70295 | 84331
9 | 18:44.32 | 2:23.00 | 84332 | 95056
10 | 21:07.32 | 1:08.38 | 95057 | 100194
11 | 22:15.70 | 2:37.37 | 100195 | 112006
12 | 24:53.32 | 2:03.00 | 112007 | 121231
13 | 26:56.32 | 5:57.00 | 121232 | 148006
14 | 32:53.32 | 2:30.38 | 148007 | 159294
15 | 35:23.70 | 2:17.37 | 159295 | 169606
16 | 37:41.32 | 4:56.00 | 169607 | 191806
Range status and errors
Selected range
Filename C:\RIP\Bach- Matthaus-Passion (Bruggen) CD3.wav
Peak level 92.1 %
Extraction speed 2.7 X
Range quality 100.0 %
Test CRC 87ED0BEF
Copy CRC 87ED0BEF
Copy OK
No errors occurred
AccurateRip summary
Track 1 accurately ripped (confidence 3) [25AB986A] (AR v2)
Track 2 accurately ripped (confidence 3) [AEB78E88] (AR v2)
Track 3 accurately ripped (confidence 3) [6585DB48] (AR v2)
Track 4 accurately ripped (confidence 3) [2BD8DFCA] (AR v2)
Track 5 accurately ripped (confidence 3) [24C45DBD] (AR v2)
Track 6 accurately ripped (confidence 3) [10DE42C0] (AR v2)
Track 7 accurately ripped (confidence 3) [65BAB9A5] (AR v2)
Track 8 accurately ripped (confidence 3) [3AE22B33] (AR v2)
Track 9 accurately ripped (confidence 3) [AE021A6D] (AR v2)
Track 10 accurately ripped (confidence 3) [A20A5A7E] (AR v2)
Track 11 accurately ripped (confidence 3) [A9862150] (AR v2)
Track 12 accurately ripped (confidence 3) [5DB0D520] (AR v2)
Track 13 accurately ripped (confidence 3) [28F28F6D] (AR v2)
Track 14 accurately ripped (confidence 3) [A5E56540] (AR v2)
Track 15 accurately ripped (confidence 3) [954A2A0A] (AR v2)
Track 16 accurately ripped (confidence 3) [64D4DF87] (AR v2)
All tracks accurately ripped
End of status report
==== Log checksum 0085DA13C20F592DEE1B371CB4B7180F5159BA39824ADCB43A963F904A893874 ====
[teatrix.ru].t19125.torrent 
Торрент: Зарегистрирован [ 2016-03-18 12:57 ] · 8113E754BC8C4DBD74E2AAC1364DC8644374E052

Скачать .torrent

Скачать

15 KB

Статус: проверено
Скачан: 0 раз
Размер: 666 MB
terms.php



Быстрый ответ

Имя:

      
Для отправки сообщений необходимо включить JavaScript
Показать сообщения:    

Текущее время: 19-Янв 16:05

Часовой пояс: UTC + 3


Вы можете начинать темы
Вы можете отвечать на сообщения
Вы не можете редактировать свои сообщения
Вы не можете удалять свои сообщения
Вы не можете голосовать в опросах
Вы не можете прикреплять файлы к сообщениям
Вы можете скачивать файлы