Моцарт - Митридат, царь понтийский / Mozart - Mitridate, re di Ponto (Rockwell Blake, Yvonne Kenny) Теодор Гушльбауэр / Theodor Guschlbauer (Jean-Claude Falle) [1983, Opera, DVD9]


 

[Цитировать]

Wolfgang Amadeus Mozart - Mitridate, re di PontoМОЦАРТ - МИТРИДАТ, царь понтийский

_________________________________________________________________________
Год записи/выхода: 1983 / 2005
Лейбл: Naxos
Страна-производитель: France
Жанр: Opera
Продолжительность: 152 min
Язык: Italian
Субтитры: English, German, French, Italian
Постановка: Jean-Claude Falle
Режиссер видео записи: Bernard Maigrot
Исполнители:
Yvonne Kenny • Rockwell Blake • Ashley Putnam
Brenda Boozer • Patricia Rosario
Orchestre de l'Opéra de Lyon
Theodor Guschlbauer, conductor
Качество видео: DVD9
Формат/Контейнер: DVDVideo
Видео кодек: MPEG2
Аудио кодек: PCM / DTS / AC3
Видео поток: 720@768x576, 6 857 Kbps, 25,000 fps.
Аудио поток: PCM Stereo 1536 Kbps / Dolby Digital 5.1 448 Kbps / DTS 5.1 755 Kbps
With great thanks to the original DVD-ripper.
Sample:
http://www.youtube.com/watch?v=oh1OX14hoqc

Описание (eng.)

This recording presents an outstanding interpretation of one of Mozart's most aristocratic compositions. Mitridate was composed in 1770 when Mozart was just fourteen-years-old and is an impressive evidence for the young composer's wunderkind qualities
Yvonne Kenny is the most popular soprano and the highest-selling classical artist in her Australian home country. She reached new heights of fame when she sang at the Closing Ceremony of the 2000 Sydney Olympic Games
Rockwell Blake in the title role has been hailed as a vocal phenomenon. His dramatic tenor encompasses a prodigious vocal range and is capable of the most fluid agility
A both poetic and dramatic production from the Lyon National Opera, along with the Paris
Bastille the most distinguished opera house in France

Скриншоты

MediaInfo

General
Complete name                            : Mozart - Mitridate (Lyon 1986)\VIDEO_TS\VTS_02_1.VOB
Format                                   : MPEG-PS
File size                                : 1 024 MiB
Duration                                 : 20mn 52s
Overall bit rate mode                    : Variable
Overall bit rate                         : 6 857 Kbps
[br]
Video
ID                                       : 224 (0xE0)
Format                                   : MPEG Video
Format version                           : Version 2
Format profile                           : Main@Main
Format settings, BVOP                    : Yes
Format settings, Matrix                  : Custom
Format settings, GOP                     : M=3, N=12
Duration                                 : 20mn 52s
Bit rate mode                            : Variable
Bit rate                                 : 3 982 Kbps
Maximum bit rate                         : 7 000 Kbps
Width                                    : 720 pixels
Height                                   : 576 pixels
Display aspect ratio                     : 4:3
Frame rate                               : 25.000 fps
Standard                                 : PAL
Color space                              : YUV
Chroma subsampling                       : 4:2:0
Bit depth                                : 8 bits
Scan type                                : Interlaced
Scan order                               : Top Field First
Compression mode                         : Lossy
Bits/(Pixel*Frame)                       : 0.384
Time code of first frame                 : 10:00:00:00
Time code source                         : Group of pictures header
Stream size                              : 595 MiB (58%)
[br]
Audio #1
ID                                       : 189 (0xBD)-129 (0x81)
Format                                   : AC-3
Format/Info                              : Audio Coding 3
Mode extension                           : CM (complete main)
Format settings, Endianness              : Big
Muxing mode                              : DVD-Video
Duration                                 : 20mn 52s
Bit rate mode                            : Constant
Bit rate                                 : 448 Kbps
Channel(s)                               : 6 channels
Channel positions                        : Front: L C R, Side: L R, LFE
Sampling rate                            : 48.0 KHz
Bit depth                                : 16 bits
Compression mode                         : Lossy
Stream size                              : 66.9 MiB (7%)
[br]
Audio #2
ID                                       : 189 (0xBD)-138 (0x8A)
Format                                   : DTS
Format/Info                              : Digital Theater Systems
Mode                                     : 16
Format settings, Endianness              : Big
Muxing mode                              : DVD-Video
Duration                                 : 20mn 52s
Bit rate mode                            : Constant
Bit rate                                 : 755 Kbps
Channel(s)                               : 6 channels
Channel positions                        : Front: L C R, Side: L R, LFE
Sampling rate                            : 48.0 KHz
Bit depth                                : 16 bits
Compression mode                         : Lossy
Stream size                              : 113 MiB (11%)
[br]
Audio #3
ID                                       : 189 (0xBD)-160 (0xA0)
Format                                   : PCM
Format settings, Endianness              : Big
Format settings, Sign                    : Signed
Muxing mode                              : DVD-Video
Duration                                 : 20mn 52s
Bit rate mode                            : Constant
Bit rate                                 : 1 536 Kbps
Channel(s)                               : 2 channels
Sampling rate                            : 48.0 KHz
Bit depth                                : 16 bits
Stream size                              : 229 MiB (22%)
[br]
Text #1
ID                                       : 189 (0xBD)-32 (0x20)
Format                                   : RLE
Format/Info                              : Run-length encoding
Muxing mode                              : DVD-Video
[br]
Text #2
ID                                       : 189 (0xBD)-33 (0x21)
Format                                   : RLE
Format/Info                              : Run-length encoding
Muxing mode                              : DVD-Video
[br]
Text #3
ID                                       : 189 (0xBD)-34 (0x22)
Format                                   : RLE
Format/Info                              : Run-length encoding
Muxing mode                              : DVD-Video
[br]
Text #4
ID                                       : 189 (0xBD)-35 (0x23)
Format                                   : RLE
Format/Info                              : Run-length encoding
Muxing mode                              : DVD-Video
Menu



Показать сообщения:    

Текущее время: 11-Дек 03:20

Часовой пояс: UTC + 3


Вы не можете начинать темы
Вы не можете отвечать на сообщения
Вы не можете редактировать свои сообщения
Вы не можете удалять свои сообщения
Вы не можете голосовать в опросах
Вы не можете прикреплять файлы к сообщениям
Вы не можете скачивать файлы