(Classical) Kalevi Aho - Ludus solemnis: music for and with organ - Jan Lehtola - 2014, FLAC (image+.cue) lossless


 

[Цитировать]

Kalevi Aho - Ludus solemnis: music for and with organ - Jan Lehtola
Жанр: Classical
Страна-производитель диска: Sweden
Год издания диска: 2014
Издатель (лейбл): BIS
Номер по каталогу: BIS-SACD-1966
Дата записи: 2010
Аудиокодек: FLAC
Тип рипа: image+.cue
Битрейт аудио: lossless
Продолжительность: 62:08
Источник: собственный рип
Наличие сканов в содержимом раздачи: да
Треклист:
Kalevi Aho (b.1949)
[1] Quasi una fantasia for horn and organ (2011)
Petri Komulainen horn
[2] Epilogue for trombone and organ (1998)
Jussi Vuorinen trombone
[3] Contrapunctus XIV from ‘Die Kunst der Fuge’
by J.S. Bach, completion by Kalevi Aho (2011)
[4] Häämarssi I (Wedding March I) (1973)
[5] Häämarssi II (Wedding March II) (1976)
[6] Hääsoitto (Wedding Music) (1999)
[7] Ludus solemnis (1978)
[8] In memoriam (1980)
[9] Laulu maasta (Song of the Earth)
for violin, oboe and organ (2002)
Kaija Saarikettu violin · Anna-Kaisa Pippuri oboe
Исполнители:
Jan Lehtola organ

Лог создания рипа

Exact Audio Copy V1.0 beta 3 from 29. August 2011
EAC extraction logfile from 2. August 2014, 23:34
Jan Lehtola / Aho - Organ Music
Used drive : HL-DT-STDVDRAM GU70N Adapter: 0 ID: 0
Read mode : Secure
Utilize accurate stream : Yes
Defeat audio cache : Yes
Make use of C2 pointers : No
Read offset correction : 48
Overread into Lead-In and Lead-Out : No
Fill up missing offset samples with silence : Yes
Delete leading and trailing silent blocks : No
Null samples used in CRC calculations : Yes
Used interface : Native Win32 interface for Win NT & 2000
Used output format : User Defined Encoder
Selected bitrate : 128 kBit/s
Quality : High
Add ID3 tag : No
Command line compressor : C:\Program Files (x86)\Exact Audio Copy\Flac\flac.exe
Additional command line options : -V -8 -T "Date=%year%" -T "Genre=%genre%" %source%
TOC of the extracted CD
Track | Start | Length | Start sector | End sector
---------------------------------------------------------
1 | 0:00.00 | 17:22.71 | 0 | 78220
2 | 17:22.71 | 4:37.19 | 78221 | 99014
3 | 22:00.15 | 15:52.22 | 99015 | 170436
4 | 37:52.37 | 1:55.37 | 170437 | 179098
5 | 39:47.74 | 1:56.18 | 179099 | 187816
6 | 41:44.17 | 3:38.60 | 187817 | 204226
7 | 45:23.02 | 6:11.39 | 204227 | 232090
8 | 51:34.41 | 5:21.08 | 232091 | 256173
9 | 56:55.49 | 5:12.32 | 256174 | 279605
Range status and errors
Selected range
Filename C:\temp\BIS-SACD-1966 - Aho - Ludus solemnis\Aho - Organ Music.wav
Peak level 97.7 %
Extraction speed 2.2 X
Range quality 100.0 %
Test CRC 094E746F
Copy CRC 094E746F
Copy OK
No errors occurred
AccurateRip summary
Track 1 not present in database
Track 2 not present in database
Track 3 not present in database
Track 4 not present in database
Track 5 not present in database
Track 6 not present in database
Track 7 not present in database
Track 8 not present in database
Track 9 not present in database
None of the tracks are present in the AccurateRip database
End of status report
==== Log checksum F0AFBDC24E32FCEC9E5546FE3FCA8DD7AB8EA8D4336C956C2925958A728B4BBA ====



Показать сообщения:    

Текущее время: 10-Дек 00:24

Часовой пояс: UTC + 3


Вы не можете начинать темы
Вы не можете отвечать на сообщения
Вы не можете редактировать свои сообщения
Вы не можете удалять свои сообщения
Вы не можете голосовать в опросах
Вы не можете прикреплять файлы к сообщениям
Вы не можете скачивать файлы