(Classical) Ludwig van Beethoven - String Trio Op.3; Serenade Op.8 - Frank Peter Zimmermann, Antoine Tamestit, Christian Poltera - 2014, FLAC (image+.cue) lossless


 

[Цитировать]

Ludwig van Beethoven - String Trio Op.3; Serenade Op.8 - Frank Peter Zimmermann, Antoine Tamestit, Christian Poltéra
Жанр: Classical
Страна-производитель диска: Sweden
Год издания диска: 2014
Издатель (лейбл): BIS
Номер по каталогу: BIS-SACD-2087
Дата записи: 2013
Аудиокодек: FLAC
Тип рипа: image+.cue
Битрейт аудио: lossless
Продолжительность: 67:55
Источник: собственный рип
Наличие сканов в содержимом раздачи: да
Треклист:
Ludwig van Beethoven (1770-1827)
[1]-[6] Trio in E flat major for violin, viola and cello, Op. 3
[7]-[13] Serenade in D major for violin, viola and cello, Op. 8
Исполнители:
Trio Zimmermann
Frank Peter Zimmermann violin
Antoine Tamestit viola
Christian Poltéra cello

Лог создания рипа

Exact Audio Copy V1.0 beta 3 from 29. August 2011
EAC extraction logfile from 24. July 2014, 12:05
Trio Zimmermann / Beethoven - String Trio Op.3; Serenade Op.8
Used drive : HL-DT-STDVDRRW GWA-4164B Adapter: 5 ID: 0
Read mode : Secure
Utilize accurate stream : Yes
Defeat audio cache : Yes
Make use of C2 pointers : No
Read offset correction : 102
Overread into Lead-In and Lead-Out : No
Fill up missing offset samples with silence : Yes
Delete leading and trailing silent blocks : No
Null samples used in CRC calculations : Yes
Used interface : Native Win32 interface for Win NT & 2000
Used output format : User Defined Encoder
Selected bitrate : 896 kBit/s
Quality : High
Add ID3 tag : No
Command line compressor : C:\Program Files\Exact Audio Copy\FLAC\FLAC.EXE
Additional command line options : -V -8 %source%
TOC of the extracted CD
Track | Start | Length | Start sector | End sector
---------------------------------------------------------
1 | 0:00.00 | 10:26.55 | 0 | 47004
2 | 10:26.55 | 9:24.32 | 47005 | 89336
3 | 19:51.12 | 3:24.35 | 89337 | 104671
4 | 23:15.47 | 7:46.19 | 104672 | 139640
5 | 31:01.66 | 3:20.74 | 139641 | 154714
6 | 34:22.65 | 6:20.10 | 154715 | 183224
7 | 40:43.00 | 2:15.05 | 183225 | 193354
8 | 42:58.05 | 6:01.27 | 193355 | 220456
9 | 48:59.32 | 2:12.03 | 220457 | 230359
10 | 51:11.35 | 3:57.11 | 230360 | 248145
11 | 55:08.46 | 3:22.39 | 248146 | 263334
12 | 58:31.10 | 6:40.13 | 263335 | 293347
13 | 65:11.23 | 2:43.65 | 293348 | 305637
Range status and errors
Selected range
Filename D:\temp\Music\BIS-SACD-2087 - Beethoven - String Trio Op.3; Serenade Op.8\Beethoven - String Trio Op.3; Serenade Op.8.wav
Peak level 97.8 %
Extraction speed 3.6 X
Range quality 100.0 %
Test CRC B1B0E39B
Copy CRC B1B0E39B
Copy OK
No errors occurred
AccurateRip summary
Track 1 accurately ripped (confidence 1) [1640A812] (AR v2)
Track 2 accurately ripped (confidence 1) [0FB35EC4] (AR v2)
Track 3 accurately ripped (confidence 1) [B350F17F] (AR v2)
Track 4 accurately ripped (confidence 1) [50E49FB7] (AR v2)
Track 5 accurately ripped (confidence 1) [4B9B71FA] (AR v2)
Track 6 accurately ripped (confidence 1) [52BEDE77] (AR v2)
Track 7 accurately ripped (confidence 1) [61D8EF2F] (AR v2)
Track 8 accurately ripped (confidence 1) [E0DF0E20] (AR v2)
Track 9 accurately ripped (confidence 1) [5CE3EE6F] (AR v2)
Track 10 accurately ripped (confidence 1) [13BA4998] (AR v2)
Track 11 accurately ripped (confidence 1) [D83750CD] (AR v2)
Track 12 accurately ripped (confidence 1) [61646354] (AR v2)
Track 13 accurately ripped (confidence 1) [04C89643] (AR v2)
All tracks accurately ripped
End of status report
==== Log checksum 460DD3C567DE74AC4CCC410AE686B5DD465207E52EAB8E0393C9A15742D55561 ====



Показать сообщения:    

Текущее время: 06-Дек 13:16

Часовой пояс: UTC + 3


Вы не можете начинать темы
Вы не можете отвечать на сообщения
Вы не можете редактировать свои сообщения
Вы не можете удалять свои сообщения
Вы не можете голосовать в опросах
Вы не можете прикреплять файлы к сообщениям
Вы не можете скачивать файлы