(Vocal/Madrigali) Monteverdi - Tempro la cetra*Il ballo delle ingrate*Tirsi e Clori*Il combattimento di Tancredi e Clorinda (Potter, Borden, Nasrawi, Righetti - Tragicomedia, Stubbs) - 2004, APE (image+.cue) lossless


 

[Цитировать]

Claudio Monteverdi - Tempro la cetra * Il ballo delle ingrate * Tirsi e Clori * Il combattimento di Tancredi e Clorinda
Жанр: Vocal/Madrigali
Страна-производитель диска: EU
Год издания диска: 2004
Издатель (лейбл): Apex
Номер по каталогу: 2564 61781-2
Дата записи: 1992
Аудиокодек: APE
Тип рипа: image+.cue
Битрейт аудио: lossless
Продолжительность: 76'01
Источник: собственный рип
Наличие сканов в содержимом раздачи: да
Треклист/Исполнители:

Tempro la cetra

1. Madrigals, Book 7: I "Tempro la cetra", Concerto!
John Potter, tenor
Tragicomedia
Directed by Stephen Stubbs

Il ballo delle ingrate

Madrigals, Book 8: 22 "Il ballo delle ingrate", Madrigali guerrieri et amorosi!
2. De l'implicabil dio
3. Entrata
4. Sinfonia
Amore - Barbara Borden, soprano
Venere - Päivi Järviö, mezzo-soprano
Plutone - Cesare Righetti_Harry van der Kamp, bass
Dama ingrate - Suzie Le Blanc, soprano
Ombre d'Inferno - John Potter_Douglas Nasrawi, tenor
Anime ingrate - Suzie Le Blanc_Barbara Borden_Päivi Järviö_John Potter
Tragicomedia
Directed by Stephen Stubbs

Tirsi e Clori

5. Madrigals, Book 7: 29. "Tirsi e Clori" Concerto!
Tirsi - John Potter, tenor
Clori - Suzie Le Blanc, soprano
Il ballo à 5 - Suzie Le Blanc_Barbara Borden_John Potter_Douglas Nasrawi_Harry van der Kamp
Tragicomedia
Directed by Stephen Stubbs

Il combattimento di Tancredi e Clorinda

Madrigals, Book 8: 8 "Il combattimento di Tancredi e Clorinda"
6. Tancredi, che Clorinda un uomo stima
7. Sinfonia
8. Amico, hai vinto
Testo - Douglas Nasrawi, tenor
Tancredi - Cesare Righetti, tenor
Clorinda - Barbara Borden, soprano
Tragicomedia
Directed by Stephen Stubbs

Лог создания рипа

Exact Audio Copy V1.0 beta 3 from 29. August 2011
EAC extraction logfile from 11. August 2014, 0:10
Monteverdi / Tempo la cetra_ballo ingrate_Tirsi e Clori_Tancredi e Clorinda, Stubs
Used drive : TS8XDVDSTRANSCEND Adapter: 1 ID: 0
Read mode : Secure
Utilize accurate stream : Yes
Defeat audio cache : Yes
Make use of C2 pointers : No
Read offset correction : 6
Overread into Lead-In and Lead-Out : No
Fill up missing offset samples with silence : Yes
Delete leading and trailing silent blocks : No
Null samples used in CRC calculations : Yes
Used interface : Native Win32 interface for Win NT & 2000
Used output format : Monkey's Audio Lossless Encoder
Selected bitrate : High Lossless Compression
Quality : High
Add ID3 tag : Yes
Command line compressor : C:\Program Files (x86)\Exact Audio Copy\MAC\MAC.exe
TOC of the extracted CD
Track | Start | Length | Start sector | End sector
---------------------------------------------------------
1 | 0:00.00 | 9:13.05 | 0 | 41479
2 | 9:13.05 | 18:04.67 | 41480 | 122846
3 | 27:17.72 | 10:23.65 | 122847 | 169636
4 | 37:41.62 | 5:53.05 | 169637 | 196116
5 | 43:34.67 | 9:24.50 | 196117 | 238466
6 | 52:59.42 | 3:42.05 | 238467 | 255121
7 | 56:41.47 | 13:59.20 | 255122 | 318066
8 | 70:40.67 | 5:18.08 | 318067 | 341924
Range status and errors
Selected range
Filename D:\EAC\Monteverdi - Tempo la cetra_ballo ingrate_Tirsi e Clori_Tancredi e Clorinda, Stubs.wav
Peak level 99.0 %
Extraction speed 3.5 X
Range quality 99.9 %
Test CRC 9819A7C5
Copy CRC 9819A7C5
Copy OK
No errors occurred
AccurateRip summary
Track 1 cannot be verified as accurate (confidence 1) [EC0D612C], AccurateRip returned [EFC9AB6E] (AR v2)
Track 2 cannot be verified as accurate (confidence 1) [59CAA650], AccurateRip returned [84A56D83] (AR v2)
Track 3 cannot be verified as accurate (confidence 1) [1A1D275B], AccurateRip returned [1BB1C83F] (AR v2)
Track 4 cannot be verified as accurate (confidence 1) [CD45CD4C], AccurateRip returned [7B3913FD] (AR v2)
Track 5 cannot be verified as accurate (confidence 1) [C9E57F2A], AccurateRip returned [FA367989] (AR v2)
Track 6 cannot be verified as accurate (confidence 1) [472DACF8], AccurateRip returned [2EA3A129] (AR v2)
Track 7 cannot be verified as accurate (confidence 1) [FB529BFD], AccurateRip returned [2846405B] (AR v2)
Track 8 cannot be verified as accurate (confidence 1) [A7A1D5C4], AccurateRip returned [3B438B44] (AR v2)
No tracks could be verified as accurate
You may have a different pressing from the one(s) in the database
End of status report
---- CUETools DB Plugin V2.1.3
[CTDB TOCID: .20GLENQEjY7PPspAVyed_lMXmk-] found, Submit result: unrecognized or virtual drive
[71ba8a00] (1/2) No match
[e24ec6ac] (1/2) Accurately ripped
==== Log checksum E99E5643CC3C7A3DC8EB5991ADEC46DAA413C0C4894D5E3E4542C6AF03E7C701 ====

Содержание индексной карты (.CUE)

REM GENRE Vocal
REM DATE 1993
REM DISCID 6311CF08
REM COMMENT "ExactAudioCopy v1.0b3"
CATALOG 0825646178124
PERFORMER "Monteverdi"
TITLE "Tempo la cetra_ballo ingrate_Tirsi e Clori_Tancredi e Clorinda, Stubs"
FILE "Monteverdi - Tempo la cetra_ballo ingrate_Tirsi e Clori_Tancredi e Clorinda, Stubs.ape" WAVE
TRACK 01 AUDIO
TITLE "Tempro la cetra"
PERFORMER "Monteverdi"
ISRC DEA809370061
INDEX 01 00:00:00
TRACK 02 AUDIO
TITLE "Il ballo delle ingrate: de l'implicabil dio"
PERFORMER "Monteverdi"
ISRC DEA809370062
INDEX 00 09:08:47
INDEX 01 09:13:05
TRACK 03 AUDIO
TITLE "Il ballo delle ingrate: entrata"
PERFORMER "Monteverdi"
ISRC DEA809370063
INDEX 01 27:17:72
TRACK 04 AUDIO
TITLE "Il ballo delle ingrate: sinfonia"
PERFORMER "Monteverdi"
ISRC DEA809370064
INDEX 01 37:41:62
TRACK 05 AUDIO
TITLE "Tirsi et Clori"
PERFORMER "Monteverdi"
ISRC DEA809370065
INDEX 00 43:25:15
INDEX 01 43:34:67
TRACK 06 AUDIO
TITLE "Il combattimento di Tancredi e Colrinda: Tancredi"
PERFORMER "Monteverdi"
ISRC DEA809370066
INDEX 00 52:55:45
INDEX 01 52:59:42
TRACK 07 AUDIO
TITLE "Il combattimento di Tancredi e Colrinda: Sinfonia"
PERFORMER "Monteverdi"
ISRC DEA809370067
INDEX 01 56:41:47
TRACK 08 AUDIO
TITLE "Il combattimento di Tancredi e Colrinda: Amico, hai vinto"
PERFORMER "Monteverdi"
ISRC DEA809370068
INDEX 01 70:40:67



Показать сообщения:    

Текущее время: 03-Дек 20:46

Часовой пояс: UTC + 3


Вы не можете начинать темы
Вы не можете отвечать на сообщения
Вы не можете редактировать свои сообщения
Вы не можете удалять свои сообщения
Вы не можете голосовать в опросах
Вы не можете прикреплять файлы к сообщениям
Вы не можете скачивать файлы