(Classical) Франц Лахнер – Месса F-dur, op. 130; Stabat mater, op. 154; Псалом XV / Franz Lachner – Sacred Choral Works a capella: Mass, Stabat mater, Psalm 15 (Eser,Rothlander,Julien,Gorgner,Rienth,Gobel; Guglhor) - 2008, FLAC (image+.cue) lossless


Статистика раздачи [Обновить пиров]
Размер:  205 MB   |    Зарегистрирован:  8 месяцев 20 дней   |    Скачан:  0 раз

Полного источника не было: Никогда

Личеров:  3  [  0 KB/s  ]   Подробная статистика пиров
 
   
 
 
 

[Цитировать]

Франц Лахнер – Месса F-dur, op. 130; Stabat mater, op. 154; Псалом XV / Franz Lachner – Sacred Choral Works a capella: Mass, Stabat mater, Psalm 15 (Eser, Rothländer, Julien, Görgner, Rienth, Göbel; Guglhör)
Жанр: Classical
Страна-производитель диска: ЕС
Год издания диска: 2008
Издатель (лейбл): OEHMS Classics
Номер по каталогу: OC 809
Дата записи: 13 — 16 июля 2007 г., Мюнхен.
Аудиокодек: FLAC
Тип рипа: image+.cue
Битрейт аудио: lossless
Продолжительность: 00:55:36
Источник: odeonmusic
Наличие сканов в содержимом раздачи: да
Треклист:
Франц Пауль Лахнер (1803 — 1890).
Месса F-dur для двух хоров и солистов, op. 130 (опубл. 1872?).
01. I. Kyrie (coro) [05:19].
02. II. Gloria (coro) [03:48].
03. III. Credo (SATB soli, coro) [08:25].
04. IV. Sanctus (coro) [02:16].
05. V. Benedictus (SAATB soli, coro) [03:59].
06. VI. Agnus Dei (SATB soli, coro) [06:01].
Stabat mater f-moll для [двух] многоголосных хоров и солистов, op. 154 (опубл. 1872?).
07. I. Stabat mater dolorosa (SSAA soli, coro) [04:29].
08. II. Quis est homo (coro) [03:27].
09. III. Eja mater (SATB soli) [03:54].
10. IV. Fac me vere (T solo, coro) [04:19].
11. V. Fac me plagis vulnerari (coro) [03:10].
Псалом XV d-moll для двойного хора.
12. «Herr, wer wird wohnen in Deiner Hütte?» [05:26].
Исполнители:
Priska Eser (сопрано I: 3, 5, 6, 7, 9),
Lisa Rothländer (альт I: 5; сопрано II: 7),
Iris Julien (альт I: 3, 6, 7, 9; альт II: 5),
Andrea Görgner (альт II: 7),
Felix Rienth (тенор: 3, 5, 6, 9, 10),
Benedikt Göbel (бас: 3, 5, 6, 9).
Orpheus Chor München.
Дирижер Gerd Guglhör.

Лог создания рипа

Exact Audio Copy V1.0 beta 3 from 29. August 2011
EAC extraction logfile from 24. March 2014, 21:52
orpheus-chor / Franz Lachner - Mass in F major, Stabat Mater - Gerd Guglhör
Used drive : TSSTcorpCDDVDW SH-222BB Adapter: 2 ID: 1
Read mode : Secure
Utilize accurate stream : Yes
Defeat audio cache : Yes
Make use of C2 pointers : No
Read offset correction : 6
Overread into Lead-In and Lead-Out : No
Fill up missing offset samples with silence : Yes
Delete leading and trailing silent blocks : No
Null samples used in CRC calculations : Yes
Used interface : Native Win32 interface for Win NT & 2000
Used output format : User Defined Encoder
Selected bitrate : 896 kBit/s
Quality : High
Add ID3 tag : No
Command line compressor : C:\Program Files\Exact Audio Copy\FLAC\FLAC.EXE
Additional command line options : -8 -V -T "TITLE=%title%" -T "ARTIST=%artist%" -T "ALBUMARTIST=%albumartist%" -T "ALBUM=%albumtitle%" -T "DATE=%year%" -T "TRACKNUMBER=%tracknr%" -T "TRACKTOTAL=%numtracks%" -T "GENRE=%genre%" -T "COMMENT=%comment%" -T "PERFORMER=%albuminterpret%" -T "COMPOSER=%composer%" %source% -o %dest%
TOC of the extracted CD
Track | Start | Length | Start sector | End sector
---------------------------------------------------------
1 | 0:00.00 | 5:23.53 | 0 | 24277
2 | 5:23.53 | 3:54.72 | 24278 | 41899
3 | 9:18.50 | 8:31.13 | 41900 | 80237
4 | 17:49.63 | 2:19.24 | 80238 | 90686
5 | 20:09.12 | 4:04.36 | 90687 | 109022
6 | 24:13.48 | 6:08.54 | 109023 | 136676
7 | 30:22.27 | 4:34.18 | 136677 | 157244
8 | 34:56.45 | 3:32.31 | 157245 | 173175
9 | 38:29.01 | 4:01.27 | 173176 | 191277
10 | 42:30.28 | 4:23.06 | 191278 | 211008
11 | 46:53.34 | 3:18.45 | 211009 | 225903
12 | 50:12.04 | 5:26.07 | 225904 | 250360
Range status and errors
Selected range
Filename G:\Ripped general\[8108] Franz Lachner – Mass in F major, Stabat Mater – Gerd Guglhör\Franz Lachner - Mass in F major, Stabat Mater - Gerd Guglhör.wav
Peak level 97.8 %
Extraction speed 6.7 X
Range quality 100.0 %
Test CRC C97D9CC4
Copy CRC C97D9CC4
Copy OK
No errors occurred
AccurateRip summary
Track 1 not present in database
Track 2 not present in database
Track 3 not present in database
Track 4 not present in database
Track 5 not present in database
Track 6 not present in database
Track 7 not present in database
Track 8 not present in database
Track 9 not present in database
Track 10 not present in database
Track 11 not present in database
Track 12 not present in database
None of the tracks are present in the AccurateRip database
End of status report
==== Log checksum 623A3EC30251AFD273008104199E4F506DCD4A4BCA959E6688D9C8EEA6D64B5C ====

Содержание индексной карты (.CUE)

REM GENRE "Classic Rock"
REM DATE 2008
REM DISCID 830D0A0C
REM COMMENT "ExactAudioCopy v1.0b3"
CATALOG 4260034868090
PERFORMER "Gerd Guglhor"
TITLE "Lachner F. – Mass in F & Stabat Mater – Gerd Guglhor"
FILE "Lachner F. – Mass in F & Stabat Mater – Gerd Guglhor.flac" WAVE
TRACK 01 AUDIO
TITLE "Mass in F major, Op. 130 - I. Kyrie"
PERFORMER "Gerd Guglhor"
ISRC DEU920780901
INDEX 01 00:00:00
TRACK 02 AUDIO
TITLE "Mass in F major, Op. 130 - II. Gloria"
PERFORMER "Gerd Guglhor"
ISRC DEU920780902
INDEX 01 05:23:53
TRACK 03 AUDIO
TITLE "Mass in F major, Op. 130 - III. Credo"
PERFORMER "Gerd Guglhor"
ISRC DEU920780903
INDEX 01 09:18:50
TRACK 04 AUDIO
TITLE "Mass in F major, Op. 130 - IV. Sanctus"
PERFORMER "Gerd Guglhor"
ISRC DEU920780904
INDEX 01 17:49:63
TRACK 05 AUDIO
TITLE "Mass in F major, Op. 130 - V. Benedictus"
PERFORMER "Gerd Guglhor"
ISRC DEU920780905
INDEX 01 20:09:12
TRACK 06 AUDIO
TITLE "Mass in F major, Op. 130 - VI. Agnus Dei"
PERFORMER "Gerd Guglhor"
ISRC DEU920780906
INDEX 01 24:13:48
TRACK 07 AUDIO
TITLE "Stabat mater, Op. 154 - I. Stabat mater dolorosa"
PERFORMER "Gerd Guglhor"
ISRC DEU920780907
INDEX 01 30:22:27
TRACK 08 AUDIO
TITLE "Stabat mater, Op. 154 - II. Quis est homo"
PERFORMER "Gerd Guglhor"
ISRC DEU920780908
INDEX 01 34:56:45
TRACK 09 AUDIO
TITLE "Stabat mater, Op. 154 - III. Eja mater"
PERFORMER "Gerd Guglhor"
ISRC DEU920780909
INDEX 01 38:29:01
TRACK 10 AUDIO
TITLE "Stabat mater, Op. 154 - IV. Fac me vere"
PERFORMER "Gerd Guglhor"
ISRC DEU920780910
INDEX 01 42:30:28
TRACK 11 AUDIO
TITLE "Stabat mater, Op. 154 - V. Fac me plagis vulnerari"
PERFORMER "Gerd Guglhor"
ISRC DEU920780911
INDEX 01 46:53:34
TRACK 12 AUDIO
TITLE "Psalm 15 for double choir"
PERFORMER "Gerd Guglhor"
ISRC DEU920780912
INDEX 01 50:12:04

Вариант индексной карты (.CUE) с выставленными зазорами

REM GENRE "Classic Rock"
REM DATE 2008
REM DISCID 830D0A0C
REM COMMENT "ExactAudioCopy v1.0b3"
CATALOG 4260034868090
PERFORMER "Gerd Guglhor"
TITLE "Lachner F. – Mass in F & Stabat Mater – Gerd Guglhor"
FILE "Lachner F. – Mass in F & Stabat Mater – Gerd Guglhor.flac" WAVE
TRACK 01 AUDIO
TITLE "Mass in F major, Op. 130 - I. Kyrie"
PERFORMER "Gerd Guglhor"
ISRC DEU920780901
INDEX 01 00:00:00
TRACK 02 AUDIO
TITLE "Mass in F major, Op. 130 - II. Gloria"
PERFORMER "Gerd Guglhor"
ISRC DEU920780902
INDEX 00 05:20:08
INDEX 01 05:23:53
TRACK 03 AUDIO
TITLE "Mass in F major, Op. 130 - III. Credo"
PERFORMER "Gerd Guglhor"
ISRC DEU920780903
INDEX 00 09:11:14
INDEX 01 09:18:50
TRACK 04 AUDIO
TITLE "Mass in F major, Op. 130 - IV. Sanctus"
PERFORMER "Gerd Guglhor"
ISRC DEU920780904
INDEX 00 17:42:14
INDEX 01 17:49:63
TRACK 05 AUDIO
TITLE "Mass in F major, Op. 130 - V. Benedictus"
PERFORMER "Gerd Guglhor"
ISRC DEU920780905
INDEX 00 20:06:02
INDEX 01 20:09:12
TRACK 06 AUDIO
TITLE "Mass in F major, Op. 130 - VI. Agnus Dei"
PERFORMER "Gerd Guglhor"
ISRC DEU920780906
INDEX 00 24:08:51
INDEX 01 24:13:48
TRACK 07 AUDIO
TITLE "Stabat mater, Op. 154 - I. Stabat mater dolorosa"
PERFORMER "Gerd Guglhor"
ISRC DEU920780907
INDEX 00 30:15:11
INDEX 01 30:22:27
TRACK 08 AUDIO
TITLE "Stabat mater, Op. 154 - II. Quis est homo"
PERFORMER "Gerd Guglhor"
ISRC DEU920780908
INDEX 00 34:49:33
INDEX 01 34:56:45
TRACK 09 AUDIO
TITLE "Stabat mater, Op. 154 - III. Eja mater"
PERFORMER "Gerd Guglhor"
ISRC DEU920780909
INDEX 00 38:23:61
INDEX 01 38:29:01
TRACK 10 AUDIO
TITLE "Stabat mater, Op. 154 - IV. Fac me vere"
PERFORMER "Gerd Guglhor"
ISRC DEU920780910
INDEX 00 42:24:57
INDEX 01 42:30:28
TRACK 11 AUDIO
TITLE "Stabat mater, Op. 154 - V. Fac me plagis vulnerari"
PERFORMER "Gerd Guglhor"
ISRC DEU920780911
INDEX 00 46:49:11
INDEX 01 46:53:34
TRACK 12 AUDIO
TITLE "Psalm 15 for double choir"
PERFORMER "Gerd Guglhor"
ISRC DEU920780912
INDEX 00 50:02:37
INDEX 01 50:12:04
INDEX 02 55:30:08
-Францу Лахнер. Реквием f-moll, op. 146 (Hermann Meyer).
[teatrix.ru].t19134.torrent 
Торрент: Зарегистрирован [ 2016-03-18 12:57 ] · 5F3CF635EE4B5709FA321B3B881E628F7DDDA115

Скачать .torrent

Скачать

17 KB

Статус: проверено
Скачан: 0 раз
Размер: 205 MB
terms.php



Быстрый ответ

Имя:

      
Для отправки сообщений необходимо включить JavaScript
Показать сообщения:    

Текущее время: 08-Дек 01:19

Часовой пояс: UTC + 3


Вы можете начинать темы
Вы можете отвечать на сообщения
Вы не можете редактировать свои сообщения
Вы не можете удалять свои сообщения
Вы не можете голосовать в опросах
Вы не можете прикреплять файлы к сообщениям
Вы можете скачивать файлы