(Orchestral) Gustav Mahler - Symphonie Nr.3 • Symphonie Nr.10 [Adagio] (Sona Cеrvena | Das Rundfunk-Sinfonieorchester Leipzig - Hermann Scherchen) - 2003, FLAC (image+.cue) lossless


 

[Цитировать]

HERMANN SCHERCHEN
G.Mahler - Symphonie n° 3Symphonie n° 10 [Adagio]
(Leipzig 1960)
- Жанр: Orchestral
Год издания диска: 2003
Страна: France
Издатель (лейбл): Tahra
Дата записи: 1/4.10.1960
Аудиокодек: FLAC
Тип рипа: image+.cue
Битрейт аудио: lossless
Продолжительность: 1:56'50''
Источник: собственный рип
Наличие сканов в содержимом раздачи: да
Треклист:

CD1

Symphonie Nr.3:
I. Kräftig entschieden
II. Tempo di Minuetto - Sehr mässig
III. Comodo. Scherzando. Ohne Hast

Лог создания рипа

Exact Audio Copy V1.0 beta 3 from 29. August 2011
EAC extraction logfile from 16. May 2014, 21:35
Rundfunk Sinfonieorchester Leipzig - H.Scherchen / Mahler - Symphonien 3 und 10 (CD1)
Used drive : COMPAQ CD-ROM LTN403 Adapter: 0 ID: 0
Read mode : Secure
Utilize accurate stream : Yes
Defeat audio cache : Yes
Make use of C2 pointers : No
Read offset correction : -1164
Overread into Lead-In and Lead-Out : No
Fill up missing offset samples with silence : Yes
Delete leading and trailing silent blocks : No
Null samples used in CRC calculations : Yes
Used interface : Native Win32 interface for Win NT & 2000
Used output format : User Defined Encoder
Selected bitrate : 1024 kBit/s
Quality : High
Add ID3 tag : No
Command line compressor : C:\Program Files\FLAC\flac.exe
Additional command line options : -T"COMMENT=rip by el coronel" -8 -V %source%
TOC of the extracted CD
Track | Start | Length | Start sector | End sector
---------------------------------------------------------
1 | 0:00.00 | 33:27.18 | 0 | 150542
2 | 33:27.18 | 9:21.54 | 150543 | 192671
3 | 42:48.72 | 15:13.67 | 192672 | 261213
Range status and errors
Selected range
Filename D:\Mahler - Symphonien 3 und 10 (CD1).wav
Peak level 94.3 %
Extraction speed 3.0 X
Range quality 100.0 %
Test CRC 62F40D37
Copy CRC 62F40D37
Copy OK
No errors occurred
End of status report
==== Log checksum 8D03D4C74FC8151AADCD233005B42911A14EC886ADB12CAA4FDA0D2A1BFBD4C4 ====

Содержание индексной карты (.CUE)

REM GENRE Classical
REM DISCID 1B0D9A03
REM COMMENT "ExactAudioCopy v1.0b3"
PERFORMER "Rundfunk-Sinfonie Orchester Leipzig - Hermann Scherchen"
TITLE "Mahler - Symphonien 3 und 10 (CD1)"
FILE "Mahler - Symphonien 3 und 10 (CD1).flac" WAVE
TRACK 01 AUDIO
TITLE "Symphonie Nr.3: I. Kraftig entschieden"
PERFORMER "Rundfunk-Sinfonie Orchester Leipzig - Hermann Scherchen"
INDEX 01 00:00:00
TRACK 02 AUDIO
TITLE "II. Tempo di Minuetto - Sehr massig"
PERFORMER "Rundfunk-Sinfonie Orchester Leipzig - Hermann Scherchen"
INDEX 00 33:23:58
INDEX 01 33:27:18
TRACK 03 AUDIO
TITLE "III. Comodo. Scherzando. Ohne Hast"
PERFORMER "Rundfunk-Sinfonie Orchester Leipzig - Hermann Scherchen"
INDEX 00 42:45:72
INDEX 01 42:48:72

CD2

Symphonie Nr.3:
IV. Sehr Langsam. Misterioso
V. Lustig im Tempo und Keck im Ausdruck
VI. Langsam. Ruhevoll Empfunden
Symphonie Nr.10:
I. Adagio

Лог создания рипа

Exact Audio Copy V1.0 beta 3 from 29. August 2011
EAC extraction logfile from 16. May 2014, 22:31
Rundfunk Sinfonieorchester Leipzig - H.Scherchen / Mahler - Symphonien 3 und 10 (CD2)
Used drive : COMPAQ CD-ROM LTN403 Adapter: 0 ID: 0
Read mode : Secure
Utilize accurate stream : Yes
Defeat audio cache : Yes
Make use of C2 pointers : No
Read offset correction : -1164
Overread into Lead-In and Lead-Out : No
Fill up missing offset samples with silence : Yes
Delete leading and trailing silent blocks : No
Null samples used in CRC calculations : Yes
Used interface : Native Win32 interface for Win NT & 2000
Used output format : User Defined Encoder
Selected bitrate : 1024 kBit/s
Quality : High
Add ID3 tag : No
Command line compressor : C:\Program Files\FLAC\flac.exe
Additional command line options : -T"COMMENT=rip by el coronel" -8 -V %source%
TOC of the extracted CD
Track | Start | Length | Start sector | End sector
---------------------------------------------------------
1 | 0:00.00 | 9:26.56 | 0 | 42505
2 | 9:26.56 | 4:11.70 | 42506 | 61400
3 | 13:38.51 | 24:10.26 | 61401 | 170176
4 | 37:49.02 | 20:57.66 | 170177 | 264517
Range status and errors
Selected range
Filename D:\Mahler - Symphonien 3 und 10 (CD2).wav
Peak level 94.3 %
Extraction speed 3.0 X
Range quality 100.0 %
Test CRC CB27DDE3
Copy CRC CB27DDE3
Copy OK
No errors occurred
End of status report
==== Log checksum CB185875B0D7A93B4FD41737D67B1BA2132F0A662CDDAB2836FF1E3EF392DA9C ====

Содержание индексной карты (.CUE)

REM GENRE Classical
REM DISCID 2B0DC604
REM COMMENT "ExactAudioCopy v1.0b3"
PERFORMER "Rundfunk-Sinfonie Orchester Leipzig - Hermann Scherchen"
TITLE "Mahler - Symphonien 3 und 10 (CD2)"
FILE "Mahler - Symphonien 3 und 10 (CD2).flac" WAVE
TRACK 01 AUDIO
TITLE "Symphonie Nr.3: IV. Sehr Langsam. Misterioso"
PERFORMER "Rundfunk-Sinfonie Orchester Leipzig - Hermann Scherchen"
INDEX 01 00:00:00
TRACK 02 AUDIO
TITLE "V. Lustig im Tempo und Keck im Ausdruck"
PERFORMER "Rundfunk-Sinfonie Orchester Leipzig - Hermann Scherchen"
INDEX 01 09:26:56
TRACK 03 AUDIO
TITLE "VI. Langsam. Ruhevoll Empfunden"
PERFORMER "Rundfunk-Sinfonie Orchester Leipzig - Hermann Scherchen"
INDEX 00 13:34:49
INDEX 01 13:38:51
TRACK 04 AUDIO
TITLE "Symphonie Nr.10: I. Adagio"
PERFORMER "Rundfunk-Sinfonie Orchester Leipzig - Hermann Scherchen"
INDEX 00 37:44:42
INDEX 01 37:49:02
Исполнители:
Soňa Červená - alto
Das Rundfunk-Sinfonieorchester Leipzig - Hermann Scherchen-Доп. информация: первый том серии дисков Archvies Hermann Scherchen. Он целиком повторяет часть более раннего издания, посвящённого малеровским записям Шерхена, сделанным в Лейпциге, но отличается лучшим звуком.-



Показать сообщения:    

Текущее время: 08-Дек 05:18

Часовой пояс: UTC + 3


Вы не можете начинать темы
Вы не можете отвечать на сообщения
Вы не можете редактировать свои сообщения
Вы не можете удалять свои сообщения
Вы не можете голосовать в опросах
Вы не можете прикреплять файлы к сообщениям
Вы не можете скачивать файлы