Джузеппе Верди - Луиза Миллер (Олеся Головнёва, Владислав Сулимский, Тарас Штонда) / Guiseppe Verdi - Luisa Miller (Golovneva, Sulimsky, Shtonda, Luc Robert) Михель Гюттлер / Michael Guttler (Stefano Visioli) [2012, Opera, DVD9] (Русские субтитры)


 

[Цитировать]

-Шведская Мальмё Опера (Malmö Opera) представляет
ДЖУЗЕППЕ Фортунино Франческо В Е Р Д И
10 октября (October 10,) 1813 — 13 января (January 27,) 1901
»«ЛУИЗА МИЛЛЕР»«
Либретто Сальваторе Каммарано по драме Шиллера
«Коварство и любовь»
-- Год записи/выхода: 2012 / 2014
•••
Лейбл: Arthaus Musik
Жанр: Opera
Продолжительность: 152 min.
Язык: Итальянский
Субтитры/Subtitles: РУССКИЕ,
English, Italiano, Deutsch, Francais, Korean
•••
Качество видео: DVD9 [СПАСИБО оргинальному релизёру!]
Формат/Контейнер: DVD Video
Видео кодек: MPEG2
Аудио кодек: PCM, AC3
Видео поток: NTSC, 720@853x480, VBR, 29,970 fps.
Аудио поток: Italiano, 1536 kbps 2 ch/448 kbps 6 ch; 48,0 KHz
•••
Постановка: СТЕФАНО ВИЗИОЛИ
Stefano Visioli
Художник-постановщик: КРИСТИАН ТАРАБОРРЕЛЛИ
Christian Taraborrelli
Костюмер: АННА МАРИЯ ГЕНРИХ
Anna Maria Heinreich
Световое оформление: ГВИДО ПЕЦОЛЬД
Guido Petzold
Режиссёр видео записи: ДИРК САЙМОН
Dirk Simon
-

Действующие лица и исполнители


ГРАФ ВАЛЬТЕР - ТАРАС ШТОНДАCount Walter – Taras Shtonda
РУДОЛЬФ, его сын - ЛЮК РОБЕРТ
Rodolfo – Luc Robert
ФЕДЕРИКА, племянница Вальтера - ИВОННА ФУКС
Federica – Ivonne Fuchs
ВУРМ, управляющий графа - ЛАРС АРВИДСОН
Wurm – Lars Arvidson
МИЛЛЕР, старый отставной солдат - ВЛАДИСЛАВ СУЛИМСКИЙ
Miller – Vladislav Sulimsky
ЛУИЗА, его дочь - ОЛЕСЯ ГОЛОВНЁВА
Luisa Miller – Olesya Golovneva
ЛАУРА, крестьянка, подруга Луизы - ЭММА ЛЮРЕН
Laura – Emma Lyrén
•••
ХОР и ОРКЕСТР театра МАЛЬМЁ ОПЕРА
Malmö Opera Chorus and Orchestra
Дирижёр: МИХЕЛЬ ГЮТТЛЕР
Michael Güttler
Хормейстер: ЭЛИЗАБЕТ БОСТРЁМ
Elisabeth Boström

Скриншоты

MediaInfo


General
Complete name : Luisa Miller (Malmo Opera) 2012\VIDEO_TS\VTS_04_3.VOB
Format : MPEG-PS
File size : 1 024 MiB
Duration : 22mn 19s
Overall bit rate mode : Variable
Overall bit rate : 6 412 Kbps
Video
ID : 224 (0xE0)
Format : MPEG Video
Format version : Version 2
Format profile : Main@Main
Format settings, BVOP : No
Format settings, Matrix : Custom
Format settings, GOP : M=3, N=18
Duration : 22mn 19s
Bit rate mode : Variable
Bit rate : 4 301 Kbps
Maximum bit rate : 7 000 Kbps
Width : 720 pixels
Height : 480 pixels
Display aspect ratio : 2.40:1
Frame rate : 29.970 fps
Standard : NTSC
Color space : YUV
Chroma subsampling : 4:2:0
Bit depth : 8 bits
Scan type : Interlaced
Scan order : Top Field First
Compression mode : Lossy
Bits/(Pixel*Frame) : 0.415
Time code of first frame : 10:41:50:08
Time code source : Group of pictures header
Stream size : 687 MiB (67%)
Audio #1
ID : 189 (0xBD)-129 (0x81)
Format : AC-3
Format/Info : Audio Coding 3
Mode extension : CM (complete main)
Format settings, Endianness : Big
Muxing mode : DVD-Video
Duration : 22mn 19s
Bit rate mode : Constant
Bit rate : 448 Kbps
Channel(s) : 6 channels
Channel positions : Front: L C R, Side: L R, LFE
Sampling rate : 48.0 KHz
Bit depth : 16 bits
Compression mode : Lossy
Delay relative to video : -168ms
Stream size : 71.5 MiB (7%)
Audio #2
ID : 189 (0xBD)-160 (0xA0)
Format : PCM
Format settings, Endianness : Big
Format settings, Sign : Signed
Muxing mode : DVD-Video
Duration : 22mn 19s
Bit rate mode : Constant
Bit rate : 1 536 Kbps
Channel(s) : 2 channels
Sampling rate : 48.0 KHz
Bit depth : 16 bits
Delay relative to video : -261ms
Stream size : 245 MiB (24%)
Text #1
ID : 189 (0xBD)-32 (0x20)
Format : RLE
Format/Info : Run-length encoding
Muxing mode : DVD-Video
Duration : 22mn 9s
Delay relative to video : 2s 369ms
Text #2
ID : 189 (0xBD)-33 (0x21)
Format : RLE
Format/Info : Run-length encoding
Muxing mode : DVD-Video
Duration : 22mn 9s
Delay relative to video : 2s 369ms
Text #3
ID : 189 (0xBD)-34 (0x22)
Format : RLE
Format/Info : Run-length encoding
Muxing mode : DVD-Video
Duration : 22mn 9s
Delay relative to video : 2s 369ms
Text #4
ID : 189 (0xBD)-35 (0x23)
Format : RLE
Format/Info : Run-length encoding
Muxing mode : DVD-Video
Duration : 22mn 9s
Delay relative to video : 2s 369ms
Text #5
ID : 189 (0xBD)-36 (0x24)
Format : RLE
Format/Info : Run-length encoding
Muxing mode : DVD-Video
Duration : 22mn 9s
Delay relative to video : 2s 369ms
Menu
-



Показать сообщения:    

Текущее время: 09-Дек 14:36

Часовой пояс: UTC + 3


Вы не можете начинать темы
Вы не можете отвечать на сообщения
Вы не можете редактировать свои сообщения
Вы не можете удалять свои сообщения
Вы не можете голосовать в опросах
Вы не можете прикреплять файлы к сообщениям
Вы не можете скачивать файлы