(Classical) Mateu Fletxa, Bartomeu Carceres, Pere Alberch Vila - Las Ensaladas, Praga 1581 - La Colombina - 2009, FLAC (image+.cue) lossless


 

[Цитировать]

Mateu Fletxa, Bartomeu Càrceres, Pere Alberch Vila - Las Ensaladas, Praga 1581 - La Colombina
Жанр: Classical
Страна-производитель диска: France
Год издания диска: 2009
Издатель (лейбл): K617
Номер по каталогу: K617216
Дата записи: 2009
Аудиокодек: FLAC
Тип рипа: image+.cue
Битрейт аудио: lossless
Продолжительность: 64:38
Источник: собственный рип
Наличие сканов в содержимом раздачи: да
Треклист:
Pere Alberch Vila (1517-1582)
[1] El Bon jorn
Mateu Fletxa (1481-1553)
[2] El Fuego
Bartomeu Càrceres (... 15 ...)
[3] La Trulla
Pere Alberch Vila
[4] La Lucha
Mateu Fletxa
[5] La Bomba
Исполнители:
La Colombina
Raquel Andueza soprano
José Hernández Pastor alto
Josep Benet ténor
Josep Cabré baryton

Лог создания рипа

Exact Audio Copy V1.0 beta 3 from 29. August 2011
EAC extraction logfile from 23. July 2014, 17:41
La Colombina / Las Ensaladas
Used drive : HL-DT-STDVDRRW GWA-4164B Adapter: 5 ID: 0
Read mode : Secure
Utilize accurate stream : Yes
Defeat audio cache : Yes
Make use of C2 pointers : No
Read offset correction : 102
Overread into Lead-In and Lead-Out : No
Fill up missing offset samples with silence : Yes
Delete leading and trailing silent blocks : No
Null samples used in CRC calculations : Yes
Used interface : Native Win32 interface for Win NT & 2000
Used output format : User Defined Encoder
Selected bitrate : 896 kBit/s
Quality : High
Add ID3 tag : No
Command line compressor : C:\Program Files\Exact Audio Copy\FLAC\FLAC.EXE
Additional command line options : -V -8 %source%
TOC of the extracted CD
Track | Start | Length | Start sector | End sector
---------------------------------------------------------
1 | 0:00.00 | 11:51.21 | 0 | 53345
2 | 11:51.21 | 9:49.09 | 53346 | 97529
3 | 21:40.30 | 23:05.59 | 97530 | 201463
4 | 44:46.14 | 8:29.61 | 201464 | 239699
5 | 53:16.00 | 11:20.51 | 239700 | 290750
Range status and errors
Selected range
Filename D:\temp\Music\K617216 - Ensaladas, Praga 1581\Las Ensaladas.wav
Peak level 98.7 %
Extraction speed 2.1 X
Range quality 100.0 %
Test CRC A318D5FD
Copy CRC A318D5FD
Copy OK
No errors occurred
AccurateRip summary
Track 1 accurately ripped (confidence 1) [6927DA68] (AR v2)
Track 2 accurately ripped (confidence 1) [E1EE2538] (AR v2)
Track 3 accurately ripped (confidence 1) [7C0A2237] (AR v2)
Track 4 accurately ripped (confidence 1) [9F761699] (AR v2)
Track 5 accurately ripped (confidence 1) [921DA13D] (AR v2)
All tracks accurately ripped
End of status report
==== Log checksum 6D040173FEF7622C30C21610CFC576D35BC93408124D43E0A24492A1A467F27A ====



Показать сообщения:    

Текущее время: 05-Дек 03:24

Часовой пояс: UTC + 3


Вы не можете начинать темы
Вы не можете отвечать на сообщения
Вы не можете редактировать свои сообщения
Вы не можете удалять свои сообщения
Вы не можете голосовать в опросах
Вы не можете прикреплять файлы к сообщениям
Вы не можете скачивать файлы