(Classical) Бородин, Шостакович – Фортепианные квинтеты / Borodin & Shostakovich – Piano Quintets (Quintette Pro Arte de Monte-Carlo: Bratoev, Lagarde, Pigerre, Sakuraba, Laurent-Biancheri) - 1994, FLAC (image+.cue) lossless


 

[Цитировать]

Бородин, Шостакович – Фортепианные квинтеты / Borodin & Shostakovich – Piano Quintets (Quintette Pro Arte de Monte-Carlo: Bratoev, Lagarde, Pigerre, Sakuraba, Laurent-Biancheri)
Жанр: Classical
Год издания диска: 1994
Издатель (лейбл): Auvidis Valois
Номер по каталогу: V 4702
Дата записи: июнь 1993 г., Монако.
Аудиокодек: FLAC
Тип рипа: image+.cue
Битрейт аудио: lossless
Продолжительность: 00:54:12
Источник: odeonmusic
Наличие сканов в содержимом раздачи: да
Треклист:
Александр Порфирьевич Бородин (1833 — 1887).
Фортепианный квинтет c-moll (1861? — 1862).
01. I. Andante [04:30].
02. II. Scherzo. Allegro non troppo. — Trio. — Tempo I [06:17].
03. III. Finale. Allegro moderato [10:11].
Дмитрий Дмитриевич Шостакович (1906 — 1975).
Фортепианный квинтет g-moll, op. 57 (1940).
04. I. Прелюдия. Lento. — Poco più mosso. — Lento. — [04:19].
05. II. Фуга. Adagio [10:53].
06. III. Скерцо. Allegretto [03:30].
07. IV. Интермеццо. Lento. — [07:15].
08. V. Финал. Allegretto [07:17].
Исполнители:
Quintette Pro Arte de Monte-Carlo:
Bojidar Bratoev (скрипка),
Daniel Lagarde (скрипка),
Jean-Pierre Pigerre (альт),
Shigheki Sakuraba (виолончель),
Fernande Laurent-Biancheri (фортепиано).

Лог создания рипа

Exact Audio Copy V1.0 beta 3 from 29. August 2011
EAC extraction logfile from 31. December 2012, 10:09
Quintet Pro Arte de Monte-Carlo / Borodin, Shostakovich - Piano quintets - Quintet Pro Arte de Monte-Carlo
Used drive : TSSTcorpCDDVDW SH-222BB Adapter: 2 ID: 1
Read mode : Secure
Utilize accurate stream : Yes
Defeat audio cache : Yes
Make use of C2 pointers : No
Read offset correction : 6
Overread into Lead-In and Lead-Out : No
Fill up missing offset samples with silence : Yes
Delete leading and trailing silent blocks : No
Null samples used in CRC calculations : Yes
Used interface : Native Win32 interface for Win NT & 2000
Used output format : User Defined Encoder
Selected bitrate : 1024 kBit/s
Quality : High
Add ID3 tag : No
Command line compressor : C:\Program Files\Exact Audio Copy\Flac\flac.exe
Additional command line options : -8 -V -T "TITLE=%title%" -T "ARTIST=%artist%" -T "ALBUMARTIST=%albumartist%" -T "ALBUM=%albumtitle%" -T "DATE=%year%" -T "TRACKNUMBER=%tracknr%" -T "TRACKTOTAL=%numtracks%" -T "GENRE=%genre%" -T "COMMENT=%comment%" -T "PERFORMER=%albuminterpret%" -T "COMPOSER=%composer%" %source% -o %dest%
TOC of the extracted CD
Track | Start | Length | Start sector | End sector
---------------------------------------------------------
1 | 0:00.32 | 4:32.58 | 32 | 20489
2 | 4:33.15 | 6:19.17 | 20490 | 48931
3 | 10:52.32 | 10:17.40 | 48932 | 95246
4 | 21:09.72 | 4:19.08 | 95247 | 114679
5 | 25:29.05 | 10:54.27 | 114680 | 163756
6 | 36:23.32 | 3:33.35 | 163757 | 179766
7 | 39:56.67 | 7:14.40 | 179767 | 212356
8 | 47:11.32 | 7:17.00 | 212357 | 245131
Range status and errors
Selected range
Filename G:\Ripped general\[1508] Borodin, Shostakovich – Piano quintets – Quintet Pro Arte de Monte-Carlo\Borodin, Shostakovich - Piano quintets - Quintet Pro Arte de Monte-Carlo.wav
Peak level 88.2 %
Extraction speed 2.3 X
Range quality 100.0 %
Test CRC 6CDA9A96
Copy CRC 6CDA9A96
Copy OK
No errors occurred
AccurateRip summary
Track 1 not present in database
Track 2 not present in database
Track 3 not present in database
Track 4 not present in database
Track 5 not present in database
Track 6 not present in database
Track 7 not present in database
Track 8 not present in database
None of the tracks are present in the AccurateRip database
End of status report

Содержание индексной карты (.CUE)

REM GENRE Classical
REM DISCID 6A0CC408
REM COMMENT "ExactAudioCopy v1.0b3"
PERFORMER "Quintette Pro Arte de Monte-Carlo"
TITLE "Borodin & Shostakovich – Piano quintets – Quintette Pro Arte de Monte-Carlo"
FILE "Borodin & Shostakovich – Piano quintets – Quintette Pro Arte de Monte-Carlo.flac" WAVE
TRACK 01 AUDIO
TITLE "Borodin - Piano Quintet in C minor - I. Andante"
PERFORMER "Quintette Pro Arte de Monte-Carlo"
INDEX 00 00:00:00
INDEX 01 00:00:32
TRACK 02 AUDIO
TITLE "Borodin - Piano Quintet in C minor - II. Scherzo. Allegro non troppo"
PERFORMER "Quintette Pro Arte de Monte-Carlo"
INDEX 00 04:30:25
INDEX 01 04:33:15
TRACK 03 AUDIO
TITLE "Borodin - Piano Quintet in C minor - III. Finale. Allegro moderato"
PERFORMER "Quintette Pro Arte de Monte-Carlo"
INDEX 00 10:50:10
INDEX 01 10:52:32
TRACK 04 AUDIO
TITLE "Shostakovich - Piano Quintet in G minor, Op. 57 - I. Prelude. Lento"
PERFORMER "Quintette Pro Arte de Monte-Carlo"
INDEX 00 21:03:65
INDEX 01 21:09:72
TRACK 05 AUDIO
TITLE "Shostakovich - Piano Quintet in G minor, Op. 57 - II. Fugue. Adagio"
PERFORMER "Quintette Pro Arte de Monte-Carlo"
INDEX 01 25:29:05
TRACK 06 AUDIO
TITLE "Shostakovich - Piano Quintet in G minor, Op. 57 - III. Scherzo. Allegretto"
PERFORMER "Quintette Pro Arte de Monte-Carlo"
INDEX 00 36:21:72
INDEX 01 36:23:32
TRACK 07 AUDIO
TITLE "Shostakovich - Piano Quintet in G minor, Op. 57 - IV. Intermezzo. Lento - Appassionato"
PERFORMER "Quintette Pro Arte de Monte-Carlo"
INDEX 00 39:53:40
INDEX 01 39:56:67
TRACK 08 AUDIO
TITLE "Shostakovich - Piano Quintet in G minor, Op. 57 - V. Finale. Allegretto"
PERFORMER "Quintette Pro Arte de Monte-Carlo"
INDEX 01 47:11:32



Показать сообщения:    

Текущее время: 08-Дек 03:13

Часовой пояс: UTC + 3


Вы не можете начинать темы
Вы не можете отвечать на сообщения
Вы не можете редактировать свои сообщения
Вы не можете удалять свои сообщения
Вы не можете голосовать в опросах
Вы не можете прикреплять файлы к сообщениям
Вы не можете скачивать файлы