Пока не опустится ночь / Until Dark (Дерек Кимбелл / Derek Kimball) [2010, США, экспериментальный, анимация, короткий метр, PDTVRip-AVC]


 

[Цитировать]

Пока не опустится ночь
Until Dark- Страна: США
Жанр: экспериментальный, анимация, короткий метр
Год выпуска: 2010
Продолжительность: 00:05:25
Перевод: Не требуется
Cубтитры: нет
Оригинальная аудиодорожка: музыкальное сопровождение
Режиссер: Дерек Кимбелл / Derek Kimball
В ролях: анимацияОписание: Музыка группы Selbyville с альбома Plumpuddinger's Voyage (2008).
Таинственная и жуткая история о наступлении сумерек…
Доп. информация: Награда Maine Media Workshops' Spirit of Place video award 2013.

Качество видео: PDTVRip
Формат видео: MKV
Видео: AVC (H.264), 624x336, 23,976 fps, ~1407 kbps avg, 0.280 bit/pixel
Аудио: AC3, 2 ch, 48 kHz, ~192.00 kbps avg

MediaInfo

Общее
Уникальный идентификатор : 240534709913671079434116505780465005538 (0xB4F54CCFFE3F43129784B1B4FCCD73E2)
Полное имя : E:\My Torrents 2\[apreder]MINI_MOVIES_09\[apreder]MM_Until_Dark(2010)PDTVRip.mkv
Формат : Matroska
Версия формата : Version 2
Размер файла : 63,4 Мбайт
Продолжительность : 5 м. 25 с.
Общий поток : 1632 Кбит/сек
Дата кодирования : UTC 2014-09-27 13:19:20
Программа кодирования : mkvmerge v7.2.0 ('On Every Street') 64bit built on Sep 13 2014 15:52:10
Библиотека кодирования : libebml v1.3.0 + libmatroska v1.4.1
Видео
Идентификатор : 1
Формат : AVC
Формат/Информация : Advanced Video Codec
Профиль формата : High@L4.1
Параметр CABAC формата : Да
Параметр ReFrames формата : 16 кадров
Идентификатор кодека : V_MPEG4/ISO/AVC
Продолжительность : 5 м. 25 с.
Битрейт : 1407 Кбит/сек
Номинальный битрейт : 1500 Кбит/сек
Ширина : 624 пикселя
Высота : 336 пикселей
Соотношение сторон : 1,85:1
Режим частоты кадров : Постоянный
Частота кадров : 23,976 кадра/сек
Цветовое пространство : YUV
Субдискретизация насыщенности : 4:2:0
Битовая глубина : 8 бит
Тип развёртки : Прогрессивная
Бит/(Пиксели*Кадры) : 0.280
Размер потока : 54,7 Мбайт (86%)
Библиотека кодирования : x264 core 142 r2431 ac76440
Настройки программы : cabac=1 / ref=16 / deblock=1:-1:-1 / analyse=0x3:0x133 / me=umh / subme=10 / psy=1 / psy_rd=1.00:0.15 / mixed_ref=1 / me_range=24 / chroma_me=1 / trellis=2 / 8x8dct=1 / cqm=0 / deadzone=21,11 / fast_pskip=1 / chroma_qp_offset=-3 / threads=6 / lookahead_threads=1 / sliced_threads=0 / nr=0 / decimate=1 / interlaced=0 / bluray_compat=0 / constrained_intra=0 / bframes=8 / b_pyramid=2 / b_adapt=2 / b_bias=0 / direct=3 / weightb=0 / open_gop=0 / weightp=2 / keyint=240 / keyint_min=23 / scenecut=40 / intra_refresh=0 / rc_lookahead=60 / rc=2pass / mbtree=1 / bitrate=1500 / ratetol=1.0 / qcomp=0.60 / qpmin=0 / qpmax=69 / qpstep=4 / cplxblur=20.0 / qblur=0.5 / vbv_maxrate=62500 / vbv_bufsize=78125 / nal_hrd=none / filler=0 / ip_ratio=1.40 / aq=1:1.00
Default : Да
Forced : Нет
Аудио
Идентификатор : 2
Формат : AC-3
Формат/Информация : Audio Coding 3
Расширение режима : CM (complete main)
Параметр Endianness формата : Big
Идентификатор кодека : A_AC3
Продолжительность : 5 м. 25 с.
Вид битрейта : Постоянный
Битрейт : 192 Кбит/сек
Каналы : 2 канала
Расположение каналов : Front: L R
Частота : 48,0 КГц
Битовая глубина : 16 бит
Метод сжатия : С потерями
Размер потока : 7,46 Мбайт (12%)
Default : Да
Forced : Нет

Скриншот c названием фильма

Скриншоты

Резервные скриншоты

-[1'760]



Показать сообщения:    

Текущее время: 06-Дек 15:10

Часовой пояс: UTC + 3


Вы не можете начинать темы
Вы не можете отвечать на сообщения
Вы не можете редактировать свои сообщения
Вы не можете удалять свои сообщения
Вы не можете голосовать в опросах
Вы не можете прикреплять файлы к сообщениям
Вы не можете скачивать файлы