(Classical, sacred) Johann Friedrich Fasch - Passio Jesu Christi - Zoltan Megyesi, Peter Cser, Maria Zadori; Schola Cantorum Budapestiensis, Capella Savaria Baroque Orchestra, Mary Terey-Smith - 2008, FLAC (image+.cue) lossless


Статистика раздачи [Обновить пиров]
Размер:  311 MB   |    Зарегистрирован:  8 месяцев 16 дней   |    Скачан:  0 раз

Полного источника не было: Никогда

Личеров:  118  [  0 KB/s  ]   Подробная статистика пиров
 
   
 
 
 

[Цитировать]

Johann Friedrich Fasch - Passio Jesu Christi - Zoltán Megyesi, Péter Cser, Mária Zádori; Schola Cantorum Budapestiensis, Capella Savaria Baroque Orchestra, Mary Térey-Smith
Жанр: Classical, sacred
Год издания диска: 2008
Издатель (лейбл): Naxos
Номер по каталогу: 8.570326
Дата записи: 2006
Аудиокодек: FLAC
Тип рипа: image+.cue
Битрейт аудио: lossless
Продолжительность: 71:24
Источник: собственный рип
Наличие сканов в содержимом раздачи: да
Треклист:
Johann Friedrich Fasch (1688-1758)
[1]-[6] Ouverture (Suite) in D minor, FWV K:d5
[7]-[36] Passio Jesu Christi, FWV F:1 'Brockes-Passion'
Исполнители:
Evangelist Zoltán Megyesi tenor
Jesus Péter Cser bass
Daughter of Zion Mária Zádori soprano
Schola Cantorum Budapestiensis
Capella Savaria Baroque Orchestra
Mary Térey-Smith

Лог создания рипа

Exact Audio Copy V1.0 beta 3 from 29. August 2011
EAC extraction logfile from 30. July 2014, 8:28
Capella Savaria Baroque Orchestra, Mary Térey-Smith / Fasch - Passio Jesu Christi
Used drive : HL-DT-STDVDRAM GU70N Adapter: 0 ID: 0
Read mode : Secure
Utilize accurate stream : Yes
Defeat audio cache : Yes
Make use of C2 pointers : No
Read offset correction : 48
Overread into Lead-In and Lead-Out : No
Fill up missing offset samples with silence : Yes
Delete leading and trailing silent blocks : No
Null samples used in CRC calculations : Yes
Used interface : Native Win32 interface for Win NT & 2000
Used output format : User Defined Encoder
Selected bitrate : 128 kBit/s
Quality : High
Add ID3 tag : No
Command line compressor : C:\Program Files (x86)\Exact Audio Copy\Flac\flac.exe
Additional command line options : -V -8 -T "Date=%year%" -T "Genre=%genre%" %source%
TOC of the extracted CD
Track | Start | Length | Start sector | End sector
---------------------------------------------------------
1 | 0:00.00 | 4:00.27 | 0 | 18026
2 | 4:00.27 | 3:01.72 | 18027 | 31673
3 | 7:02.24 | 1:49.28 | 31674 | 39876
4 | 8:51.52 | 3:26.12 | 39877 | 55338
5 | 12:17.64 | 5:35.60 | 55339 | 80523
6 | 17:53.49 | 5:44.32 | 80524 | 106355
7 | 23:38.06 | 3:26.28 | 106356 | 121833
8 | 27:04.34 | 0:55.57 | 121834 | 126015
9 | 28:00.16 | 1:17.36 | 126016 | 131826
10 | 29:17.52 | 1:11.36 | 131827 | 137187
11 | 30:29.13 | 1:18.15 | 137188 | 143052
12 | 31:47.28 | 1:22.47 | 143053 | 149249
13 | 33:10.00 | 0:47.34 | 149250 | 152808
14 | 33:57.34 | 4:08.21 | 152809 | 171429
15 | 38:05.55 | 1:03.73 | 171430 | 176227
16 | 39:09.53 | 2:03.30 | 176228 | 185482
17 | 41:13.08 | 1:14.40 | 185483 | 191072
18 | 42:27.48 | 3:43.72 | 191073 | 207869
19 | 46:11.45 | 1:14.33 | 207870 | 213452
20 | 47:26.03 | 1:30.46 | 213453 | 220248
21 | 48:56.49 | 0:50.01 | 220249 | 223999
22 | 49:46.50 | 0:56.22 | 224000 | 228221
23 | 50:42.72 | 0:36.08 | 228222 | 230929
24 | 51:19.05 | 0:43.05 | 230930 | 234159
25 | 52:02.10 | 3:03.71 | 234160 | 247955
26 | 55:06.06 | 1:07.19 | 247956 | 252999
27 | 56:13.25 | 1:02.58 | 253000 | 257707
28 | 57:16.08 | 0:53.58 | 257708 | 261740
29 | 58:09.66 | 2:04.69 | 261741 | 271109
30 | 60:14.60 | 0:39.05 | 271110 | 274039
31 | 60:53.65 | 0:39.29 | 274040 | 276993
32 | 61:33.19 | 0:52.01 | 276994 | 280894
33 | 62:25.20 | 1:00.53 | 280895 | 285447
34 | 63:25.73 | 0:43.56 | 285448 | 288728
35 | 64:09.54 | 4:19.49 | 288729 | 308202
36 | 68:29.28 | 2:52.47 | 308203 | 321149
Range status and errors
Selected range
Filename C:\temp\Naxos_8.570326 - Fasch - Passio Jesu Christi\Fasch - Passio Jesu Christi.wav
Peak level 98.9 %
Extraction speed 2.2 X
Range quality 100.0 %
Test CRC C20A9C54
Copy CRC C20A9C54
Copy OK
No errors occurred
AccurateRip summary
Track 1 accurately ripped (confidence 2) [0416CB92] (AR v2)
Track 2 accurately ripped (confidence 2) [DAD9599C] (AR v2)
Track 3 accurately ripped (confidence 2) [BDC8651C] (AR v2)
Track 4 accurately ripped (confidence 2) [02D07027] (AR v2)
Track 5 accurately ripped (confidence 2) [41FF9EC3] (AR v2)
Track 6 accurately ripped (confidence 2) [FD61143B] (AR v2)
Track 7 accurately ripped (confidence 2) [ACA1500D] (AR v2)
Track 8 accurately ripped (confidence 2) [3BF42BFB] (AR v2)
Track 9 accurately ripped (confidence 2) [70E24EC1] (AR v2)
Track 10 accurately ripped (confidence 2) [4646D8E7] (AR v2)
Track 11 accurately ripped (confidence 2) [EF2AB9B6] (AR v2)
Track 12 accurately ripped (confidence 2) [EB07AEEC] (AR v2)
Track 13 accurately ripped (confidence 2) [65513446] (AR v2)
Track 14 accurately ripped (confidence 2) [8235CB49] (AR v2)
Track 15 accurately ripped (confidence 2) [800AED1E] (AR v2)
Track 16 accurately ripped (confidence 2) [8F569E1F] (AR v2)
Track 17 accurately ripped (confidence 2) [AFB896AD] (AR v2)
Track 18 accurately ripped (confidence 2) [2DBC1D45] (AR v2)
Track 19 accurately ripped (confidence 2) [CDE41F98] (AR v2)
Track 20 accurately ripped (confidence 2) [DEF8CA76] (AR v2)
Track 21 accurately ripped (confidence 2) [A0FE1FD7] (AR v2)
Track 22 accurately ripped (confidence 2) [17EAF977] (AR v2)
Track 23 accurately ripped (confidence 2) [154D3291] (AR v2)
Track 24 accurately ripped (confidence 2) [889CA2DE] (AR v2)
Track 25 accurately ripped (confidence 2) [E0440053] (AR v2)
Track 26 accurately ripped (confidence 2) [3163A4FD] (AR v2)
Track 27 accurately ripped (confidence 2) [F88B82F5] (AR v2)
Track 28 accurately ripped (confidence 2) [EE4759C3] (AR v2)
Track 29 accurately ripped (confidence 2) [9D458FE7] (AR v2)
Track 30 accurately ripped (confidence 2) [3046FB1A] (AR v2)
Track 31 accurately ripped (confidence 2) [BD827C8C] (AR v2)
Track 32 accurately ripped (confidence 2) [2F6B458C] (AR v2)
Track 33 accurately ripped (confidence 2) [EA4B4CEC] (AR v2)
Track 34 accurately ripped (confidence 2) [8C0A9911] (AR v2)
Track 35 accurately ripped (confidence 2) [FE073B95] (AR v2)
Track 36 accurately ripped (confidence 2) [DCB6BA34] (AR v2)
All tracks accurately ripped
End of status report
==== Log checksum 9F00656B8895711CF80B2D45997D03CEA186E8D4C2DFC8ED02247EEC4C7BBC4A ====
[teatrix.ru].t19146.torrent 
Торрент: Зарегистрирован [ 2016-03-18 12:49 ] · 8E0EB8526A6B3D60C10675E9B2879E1C4829532B

Скачать .torrent

Скачать

26 KB

Статус: проверено
Скачан: 0 раз
Размер: 311 MB
terms.php



Быстрый ответ

Имя:

      
Для отправки сообщений необходимо включить JavaScript
Показать сообщения:    

Текущее время: 03-Дек 20:46

Часовой пояс: UTC + 3


Вы можете начинать темы
Вы можете отвечать на сообщения
Вы не можете редактировать свои сообщения
Вы не можете удалять свои сообщения
Вы не можете голосовать в опросах
Вы не можете прикреплять файлы к сообщениям
Вы можете скачивать файлы