Снедаемые желанием / Eager (Эллисон Шульник / Allison Schulnik) [2014, США, экспериментальный, пластическая миниатюра, анимация, короткий метр, PDTVRip-AVC]


 

[Цитировать]

Снедаемые желанием
Eager- Страна: США
Жанр: экспериментальный, пластическая миниатюра, анимация, короткий метр
Год выпуска: 2014
Продолжительность: 00:08:29
Перевод: Не требуется
Cубтитры: нет
Оригинальная аудиодорожка: музыкальное сопровождение
Режиссер: Эллисон Шульник / Allison Schulnik
В ролях: анимация
Описание: В мистическом мире художника, скульптора и аниматора из Калифорнии Эллисон Шульник обитают клоуны-бродяги, опоссумы, бешеные обезьяны и другие, не менее интересные, существа… Сквозь мягкие цвета и вымышленных героев Эллисон рассказывает о психологии человека, его волнениях и проблемах.
"Мои персонажи могут месяцами, а то и годами преследовать меня в моем воображении, пока не докажут, что пора подарить им вечную жизнь на картинах", - призналась однажды Эллисон.
Причудливый ансамбль жутких фигур исполняет некий ритмический ритуал.
Звучит композиция Eager молодого композитора из Лос-Анджелеса Aaron M. Olson.
Доп. информация: Награды: приз за лучшую абстрактную анимацию Ottawa International Animation Festival, Canada 2014; Специальный приз жюри SXSW Film Conference and Festival, Austin 2014.

Качество видео: PDTVRip
Формат видео: MKV
Видео: AVC (H.264), 720x400, 24 fps, ~1500 kbps avg, 0.217 bit/pixel
Аудио: AC3, 2 ch, 48 kHz, ~192.00 kbps avg

MediaInfo

Общее
Уникальный идентификатор : 242406101327429946551027658694527796715 (0xB65DB7886356CC54AB7579B7FEC3C5EB)
Полное имя : E:\My Torrents 2\[apreder]MINI_MOVIES_09\[apreder]MM_Eager(2014)PDTVRip.mkv
Формат : Matroska
Версия формата : Version 2
Размер файла : 103 Мбайт
Продолжительность : 8 м. 29 с.
Общий поток : 1698 Кбит/сек
Дата кодирования : UTC 2014-09-28 13:42:08
Программа кодирования : mkvmerge v7.2.0 ('On Every Street') 64bit built on Sep 13 2014 15:52:10
Библиотека кодирования : libebml v1.3.0 + libmatroska v1.4.1
Видео
Идентификатор : 1
Формат : AVC
Формат/Информация : Advanced Video Codec
Профиль формата : High@L4.1
Параметр CABAC формата : Да
Параметр ReFrames формата : 16 кадров
Идентификатор кодека : V_MPEG4/ISO/AVC
Продолжительность : 8 м. 29 с.
Битрейт : 1500 Кбит/сек
Ширина : 720 пикселей
Высота : 400 пикселей
Соотношение сторон : 16:9
Режим частоты кадров : Постоянный
Частота кадров : 24,000 кадра/сек
Частота кадров в оригинале : 23,976 кадра/сек
Цветовое пространство : YUV
Субдискретизация насыщенности : 4:2:0
Битовая глубина : 8 бит
Тип развёртки : Прогрессивная
Бит/(Пиксели*Кадры) : 0.217
Размер потока : 89,4 Мбайт (87%)
Библиотека кодирования : x264 core 142 r2431 ac76440
Настройки программы : cabac=1 / ref=16 / deblock=1:-1:-1 / analyse=0x3:0x133 / me=umh / subme=10 / psy=1 / psy_rd=1.00:0.15 / mixed_ref=1 / me_range=24 / chroma_me=1 / trellis=2 / 8x8dct=1 / cqm=0 / deadzone=21,11 / fast_pskip=1 / chroma_qp_offset=-3 / threads=6 / lookahead_threads=1 / sliced_threads=0 / nr=0 / decimate=1 / interlaced=0 / bluray_compat=0 / constrained_intra=0 / bframes=8 / b_pyramid=2 / b_adapt=2 / b_bias=0 / direct=3 / weightb=0 / open_gop=0 / weightp=2 / keyint=240 / keyint_min=23 / scenecut=40 / intra_refresh=0 / rc_lookahead=60 / rc=2pass / mbtree=1 / bitrate=1500 / ratetol=1.0 / qcomp=0.60 / qpmin=0 / qpmax=69 / qpstep=4 / cplxblur=20.0 / qblur=0.5 / vbv_maxrate=62500 / vbv_bufsize=78125 / nal_hrd=none / filler=0 / ip_ratio=1.40 / aq=1:1.00
Default : Да
Forced : Нет
Аудио
Идентификатор : 2
Формат : AC-3
Формат/Информация : Audio Coding 3
Расширение режима : CM (complete main)
Параметр Endianness формата : Big
Идентификатор кодека : A_AC3
Продолжительность : 8 м. 29 с.
Вид битрейта : Постоянный
Битрейт : 192 Кбит/сек
Каналы : 2 канала
Расположение каналов : Front: L R
Частота : 48,0 КГц
Битовая глубина : 16 бит
Метод сжатия : С потерями
Размер потока : 11,7 Мбайт (11%)
Default : Да
Forced : Нет

Скриншот c названием фильма

Скриншоты

Резервные скриншоты

-[1'763]



Показать сообщения:    

Текущее время: 11-Дек 14:57

Часовой пояс: UTC + 3


Вы не можете начинать темы
Вы не можете отвечать на сообщения
Вы не можете редактировать свои сообщения
Вы не можете удалять свои сообщения
Вы не можете голосовать в опросах
Вы не можете прикреплять файлы к сообщениям
Вы не можете скачивать файлы